<?xml version="1.0" standalone="no"?>
<!DOCTYPE svg PUBLIC "-//W3C//DTD SVG 1.1//EN" "http://www.w3.org/Graphics/SVG/1.1/DTD/svg11.dtd" >
<svg xmlns="http://www.w3.org/2000/svg">
<metadata></metadata>
<defs>
<font id="vegan-sans-semibold" horiz-adv-x="600" >
<font-face units-per-em="1000" ascent="800" descent="-200" />
<missing-glyph horiz-adv-x="300" />
<glyph unicode="fb" horiz-adv-x="963" d="M20 435v85h85v37q0 100 73.5 151t188.5 51q111 0 197 -31v-258q70 68 155 68q88 0 143 -74t55 -203q0 -126 -64.5 -201t-155.5 -75q-83 0 -133 61v-46h-125v667q-35 8 -72 8q-59 0 -98 -28.5t-39 -88.5v-38h111v-85h-111v-435h-125v435h-85zM564 120q44 -42 103 -42 q53 0 87.5 47t34.5 136q0 90 -31 137t-83 47q-63 0 -111 -46v-279z" />
<glyph unicode="ff" horiz-adv-x="719" d="M20 435v85h85v73q0 83 46 124.5t128 41.5q58 0 92 -17v-79q-33 9 -65 9q-76 0 -76 -79v-73h209v73q0 83 46 124.5t127 41.5q59 0 93 -17v-79q-35 9 -65 9q-76 0 -76 -79v-73h141v-85h-141v-435h-125v435h-209v-435h-125v435h-85z" />
<glyph unicode="fh" horiz-adv-x="973" d="M20 435v85h85v37q0 100 73.5 151t188.5 51q111 0 197 -31v-274q81 84 181 84q69 0 113 -41t44 -131v-366h-125v342q0 95 -90 95q-31 0 -65.5 -15.5t-57.5 -37.5v-384h-125v667q-35 8 -72 8q-59 0 -98 -28.5t-39 -88.5v-38h111v-85h-111v-435h-125v435h-85z" />
<glyph unicode="fi" horiz-adv-x="635" d="M20 435v85h85v73q0 83 46 124.5t128 41.5q54 0 88 -17v-79q-34 9 -61 9q-76 0 -76 -79v-73h334v-520h-125v435h-209v-435h-125v435h-85zM426 663q0 32 21.5 53.5t53.5 21.5q33 0 54.5 -21.5t21.5 -53.5t-21.5 -53.5t-54.5 -21.5q-32 0 -53.5 21.5t-21.5 53.5z" />
<glyph unicode="fj" horiz-adv-x="635" d="M20 435v85h85v73q0 83 46 124.5t128 41.5q54 0 88 -17v-79q-34 9 -61 9q-76 0 -76 -79v-73h334v-728h-125v643h-209v-435h-125v435h-85zM426 663q0 32 21.5 53.5t53.5 21.5q33 0 54.5 -21.5t21.5 -53.5t-21.5 -53.5t-54.5 -21.5q-32 0 -53.5 21.5t-21.5 53.5z" />
<glyph unicode="fk" horiz-adv-x="908" d="M20 435v85h85v37q0 100 73.5 151t188.5 51q111 0 197 -31v-442l189 234h127l-197 -230l216 -290h-148l-187 262v-262h-125v667q-35 8 -72 8q-59 0 -98 -28.5t-39 -88.5v-38h111v-85h-111v-435h-125v435h-85z" />
<glyph unicode="fl" horiz-adv-x="635" d="M20 435v85h85v37q0 100 73.5 151t188.5 51q111 0 197 -31v-728h-125v667q-35 8 -72 8q-59 0 -98 -28.5t-39 -88.5v-38h111v-85h-111v-435h-125v435h-85z" />
<glyph unicode="ft" horiz-adv-x="740" d="M20 435v85h85v73q0 83 46 124.5t128 41.5q58 0 92 -17v-79q-33 9 -65 9q-76 0 -76 -79v-73h209v140h125v-140h136v-85h-136v-277q0 -86 67 -86q28 0 75 14v-78q-54 -23 -118 -23q-67 0 -108 37.5t-41 113.5v299h-209v-435h-125v435h-85z" />
<glyph unicode="ffb" horiz-adv-x="1296" d="M20 435v85h85v73q0 83 46 124.5t128 41.5q58 0 92 -17v-79q-33 9 -65 9q-76 0 -76 -79v-73h209v37q0 99 73 150.5t188 51.5q113 0 197 -31v-258q70 68 156 68q88 0 143 -74t55 -203q0 -126 -65 -201t-156 -75q-81 0 -133 61v-46h-125v667q-35 8 -72 8q-59 0 -97.5 -28.5 t-38.5 -88.5v-38h111v-85h-111v-435h-125v435h-209v-435h-125v435h-85zM897 120q45 -42 104 -42q53 0 87 47t34 136q0 90 -31 137t-83 47q-62 0 -111 -46v-279z" />
<glyph unicode="ffh" horiz-adv-x="1307" d="M20 435v85h85v73q0 83 46 124.5t128 41.5q58 0 92 -17v-79q-33 9 -65 9q-76 0 -76 -79v-73h209v37q0 99 73 150.5t188 51.5q113 0 197 -31v-274q82 84 182 84q69 0 113 -41t44 -131v-366h-125v342q0 95 -90 95q-32 0 -66 -15.5t-58 -37.5v-384h-125v667q-35 8 -72 8 q-59 0 -97.5 -28.5t-38.5 -88.5v-38h111v-85h-111v-435h-125v435h-209v-435h-125v435h-85z" />
<glyph unicode="ffi" horiz-adv-x="968" d="M20 435v85h85v73q0 83 46 124.5t128 41.5q58 0 92 -17v-79q-33 9 -65 9q-76 0 -76 -79v-73h209v73q0 83 46 124.5t127 41.5q54 0 88 -17v-79q-33 9 -60 9q-76 0 -76 -79v-73h333v-520h-125v435h-208v-435h-125v435h-209v-435h-125v435h-85zM759 663q0 32 21.5 53.5 t54.5 21.5q32 0 54 -21.5t22 -53.5t-22 -53.5t-54 -21.5q-33 0 -54.5 21.5t-21.5 53.5z" />
<glyph unicode="ffj" horiz-adv-x="968" d="M20 435v85h85v73q0 83 46 124.5t128 41.5q58 0 92 -17v-79q-33 9 -65 9q-76 0 -76 -79v-73h209v73q0 83 46 124.5t127 41.5q54 0 88 -17v-79q-33 9 -60 9q-76 0 -76 -79v-73h333v-728h-125v643h-208v-435h-125v435h-209v-435h-125v435h-85zM759 663q0 32 21.5 53.5 t54.5 21.5q32 0 54 -21.5t22 -53.5t-22 -53.5t-54 -21.5q-33 0 -54.5 21.5t-21.5 53.5z" />
<glyph unicode="ffk" horiz-adv-x="1241" d="M20 435v85h85v73q0 83 46 124.5t128 41.5q58 0 92 -17v-79q-33 9 -65 9q-76 0 -76 -79v-73h209v37q0 99 73 150.5t188 51.5q113 0 197 -31v-442l189 234h128l-197 -230l215 -290h-148l-187 262v-262h-125v667q-35 8 -72 8q-59 0 -97.5 -28.5t-38.5 -88.5v-38h111v-85 h-111v-435h-125v435h-209v-435h-125v435h-85z" />
<glyph unicode="ffl" horiz-adv-x="1039" d="M20 435v85h85v73q0 83 46 124.5t128 41.5q58 0 92 -17v-79q-33 9 -65 9q-76 0 -76 -79v-73h209v37q0 99 73 150.5t188 51.5q113 0 197 -31v-728h-125v664q-33 9 -71 9q-60 0 -98.5 -27.5t-38.5 -87.5v-38h111v-85h-111v-435h-125v435h-209v-435h-125v435h-85z" />
<glyph unicode="fft" horiz-adv-x="1074" d="M20 435v85h85v73q0 83 46 124.5t128 41.5q58 0 92 -17v-79q-33 9 -65 9q-76 0 -76 -79v-73h209v73q0 83 46 124.5t127 41.5q59 0 93 -17v-79q-35 9 -65 9q-76 0 -76 -79v-73h208v140h125v-140h137v-85h-137v-277q0 -86 67 -86q30 0 75 14v-78q-53 -23 -117 -23 q-68 0 -109 37t-41 114v299h-208v-435h-125v435h-209v-435h-125v435h-85z" />
<glyph unicode="tt" horiz-adv-x="760" d="M20 435v85h85v140h125v-140h229v140h125v-140h136v-85h-136v-277q0 -86 67 -86q28 0 75 14v-78q-54 -23 -118 -23q-67 0 -108 37.5t-41 113.5v299h-229v-277q0 -86 67 -86q29 0 75 14v-78q-53 -23 -117 -23q-68 0 -109 37t-41 114v299h-85z" />
<glyph unicode="&#xd;" horiz-adv-x="0" />
<glyph unicode=" "  horiz-adv-x="300" />
<glyph unicode="&#x09;" horiz-adv-x="300" />
<glyph unicode="&#xa0;" horiz-adv-x="300" />
<glyph unicode="!" horiz-adv-x="320" d="M82 63q0 34 22 56t56 22t56 -22t22 -56t-22 -56t-56 -22t-56 22t-22 56zM89 700h142l-21 -478h-99z" />
<glyph unicode="&#x22;" horiz-adv-x="385" d="M50 700h117l-16 -273h-85zM218 700h117l-16 -273h-85z" />
<glyph unicode="#" horiz-adv-x="714" d="M36 186v100h112l34 135h-96v100h122l46 179h119l-46 -179h146l46 179h119l-46 -179h85v-100h-111l-34 -135h95v-100h-121l-48 -186h-119l48 186h-146l-48 -186h-119l48 186h-86zM267 286h146l34 135h-146z" />
<glyph unicode="$" horiz-adv-x="620" d="M45 211h136q9 -129 138 -129q56 0 92.5 27.5t36.5 78.5q0 38 -25 62t-48 31.5t-77 18.5q-11 3 -17 4q-29 6 -46 10.5t-44.5 13.5t-44 18.5t-36.5 25t-31 34t-18.5 45t-7.5 58.5q0 81 54.5 135.5t143.5 67.5v108h119v-110q184 -29 196 -212h-135q-10 120 -130 120 q-54 0 -87.5 -24t-33.5 -72q0 -38 24.5 -62t48.5 -32t78 -19q8 -2 13 -3q28 -6 41 -9t39 -10t40 -14t34.5 -18t31.5 -24.5t23 -31.5t17 -41.5t5 -51.5q0 -83 -58 -142.5t-147 -74.5v-109h-119v110q-197 28 -206 221z" />
<glyph unicode="%" horiz-adv-x="1023" d="M49 490q0 99 52.5 159t138.5 60t138.5 -60t52.5 -159t-52.5 -159t-138.5 -60t-138.5 60t-52.5 159zM159 490q0 -69 21 -105t60 -36t60 36t21 105t-21 105t-60 36t-60 -36t-21 -105zM220 0l453 700h124l-453 -700h-124zM590 210q0 99 52.5 159t138.5 60t138.5 -60 t52.5 -159t-52.5 -159t-138.5 -60t-138.5 60t-52.5 159zM700 210q0 -69 21 -105t60 -36t60 36t21 105t-21 105t-60 36t-60 -36t-21 -105z" />
<glyph unicode="&#x26;" horiz-adv-x="714" d="M46 190q0 57 30 106.5t82 81.5q-61 76 -61 146q0 82 60.5 136.5t155.5 54.5q221 0 234 -192h-135q-10 95 -99 95q-38 0 -63.5 -22.5t-25.5 -61.5q0 -57 65 -121l192 -190q23 69 23 151h127q0 -130 -66 -234l142 -140h-168l-52 51q-82 -66 -186 -66q-109 0 -182 54.5 t-73 150.5zM169 202q0 -54 39 -87t97 -33q65 0 110 39l-194 190q-52 -40 -52 -109z" />
<glyph unicode="'" horiz-adv-x="217" d="M50 700h117l-16 -273h-85z" />
<glyph unicode="(" horiz-adv-x="376" d="M60 350q0 152 58.5 274t142.5 201h119q-83 -83 -132 -213t-49 -262t49 -262t132 -213h-119q-84 79 -142.5 201t-58.5 274z" />
<glyph unicode=")" horiz-adv-x="376" d="M-4 -125q83 83 132 213t49 262t-49 262t-132 213h119q84 -79 142.5 -201t58.5 -274q0 -153 -58.5 -274.5t-142.5 -200.5h-119z" />
<glyph unicode="*" horiz-adv-x="513" d="M50 472l141 49l-141 50l59 102l116 -101l-28 148h119l-29 -147l117 100l59 -102l-142 -50l142 -49l-59 -101l-117 99l29 -148h-119l29 149l-117 -100z" />
<glyph unicode="+" horiz-adv-x="569" d="M50 316v100h184v184h100v-184h185v-100h-185v-185h-100v185h-184z" />
<glyph unicode="," horiz-adv-x="222" d="M37 -160l20 286h123l-41 -286h-102z" />
<glyph unicode="-" horiz-adv-x="344" d="M50 227v99h244v-99h-244z" />
<glyph unicode="." horiz-adv-x="240" d="M42 63q0 34 22 56t56 22t56 -22t22 -56t-22 -56t-56 -22t-56 22t-22 56z" />
<glyph unicode="/" horiz-adv-x="483" d="M20 -40l315 780h128l-315 -780h-128z" />
<glyph unicode="0" horiz-adv-x="640" d="M45 350q0 167 74 266t201 99q126 0 200 -99.5t74 -265.5t-74 -265.5t-200 -99.5q-127 0 -201 99t-74 266zM182 350q0 -128 36.5 -197t101.5 -69t101.5 69t36.5 197t-36.5 197t-101.5 69t-101.5 -69t-36.5 -197z" />
<glyph unicode="1" horiz-adv-x="412" d="M35 497v113l165 90h131v-700h-131v586z" />
<glyph unicode="2" horiz-adv-x="561" d="M45 485q6 112 71 171t177 59q106 0 167.5 -53t61.5 -150q0 -60 -36.5 -125.5t-93.5 -126.5t-165 -161h304v-99h-467v99q174 164 218 211q101 111 107 191v11q0 52 -25.5 79t-70.5 27q-102 0 -112 -133h-136z" />
<glyph unicode="3" horiz-adv-x="585" d="M41 192h136q9 -110 120 -110q52 0 83.5 33t31.5 86q0 48 -36.5 77.5t-111.5 29.5h-70v99h70q64 0 97.5 32t33.5 81q0 48 -26.5 73t-71.5 25q-100 0 -112 -110h-136q8 98 72.5 152.5t175.5 54.5q104 0 167.5 -51t63.5 -144q0 -49 -31.5 -93.5t-85.5 -62.5q68 -13 101 -59 t33 -104q0 -97 -70.5 -156.5t-177.5 -59.5q-244 0 -256 207z" />
<glyph unicode="4" horiz-adv-x="576" d="M39 124v99l196 477h124l-198 -477h172v167h121v-167h91v-99h-91v-124h-121v124h-294z" />
<glyph unicode="5" horiz-adv-x="567" d="M45 181h136q10 -99 107 -99q50 0 78 39t28 108q0 141 -105 141q-71 0 -112 -57h-114v387h421v-99h-307v-206q24 34 65 54t84 20q93 0 147 -60.5t54 -179.5q0 -114 -67.5 -179t-171.5 -65q-114 0 -175.5 50t-67.5 146z" />
<glyph unicode="6" horiz-adv-x="601" d="M45 314q0 192 73 296.5t196 104.5q98 0 156.5 -46t67.5 -131h-136q-7 43 -28 61.5t-60 18.5q-61 0 -93 -59t-38 -186q30 36 75 58.5t91 22.5q96 0 151.5 -60t55.5 -172q0 -107 -71.5 -172t-176.5 -65q-126 0 -194.5 87t-68.5 242zM182 295q4 -213 126 -213q53 0 84 39 t31 101q0 61 -27.5 97.5t-83.5 36.5q-79 0 -130 -61z" />
<glyph unicode="7" horiz-adv-x="494" d="M35 601v99h429v-99l-237 -601h-125l242 601h-309z" />
<glyph unicode="8" horiz-adv-x="611" d="M45 188q0 62 35 109.5t100 64.5q-54 20 -85 61t-31 96q0 93 66.5 144.5t175.5 51.5t175.5 -51.5t66.5 -144.5q0 -55 -31 -96t-85 -61q65 -17 99.5 -64.5t34.5 -109.5q0 -101 -71 -152t-189 -51q-119 0 -190 51t-71 152zM176 192q0 -54 35 -82t95 -28t94.5 28t34.5 82 q0 52 -32.5 83t-96.5 31t-97 -31t-33 -83zM193 514q0 -50 28.5 -79t84.5 -29q55 0 83.5 29t28.5 79q0 51 -30.5 77.5t-81.5 26.5t-82 -26.5t-31 -77.5z" />
<glyph unicode="9" horiz-adv-x="601" d="M45 482q0 106 71.5 169.5t176.5 63.5q126 0 194.5 -87t68.5 -243q0 -193 -71.5 -296.5t-198.5 -103.5q-103 0 -164 49t-68 143h135q13 -95 97 -95q67 0 98 61.5t35 200.5q-29 -37 -74 -60t-93 -23q-97 0 -152 56t-55 165zM177 482q0 -122 112 -122q38 0 72.5 16.5 t56.5 44.5q-9 197 -125 197q-55 0 -85.5 -36.5t-30.5 -99.5z" />
<glyph unicode=":" horiz-adv-x="240" d="M42 63q0 34 22 56t56 22t56 -22t22 -56t-22 -56t-56 -22t-56 22t-22 56zM42 453q0 34 22 56t56 22t56 -22t22 -56t-22 -56t-56 -22t-56 22t-22 56z" />
<glyph unicode=";" horiz-adv-x="240" d="M42 -149l20 275h122l-41 -275h-101zM42 453q0 34 22 56t56 22t56 -22t22 -56t-22 -56t-56 -22t-56 22t-22 56z" />
<glyph unicode="&#x3c;" horiz-adv-x="569" d="M50 316v102l469 195v-98l-346 -145l346 -144v-105z" />
<glyph unicode="=" horiz-adv-x="569" d="M50 212v99h469v-99h-469zM50 421v99h469v-99h-469z" />
<glyph unicode="&#x3e;" horiz-adv-x="569" d="M50 121v98l346 145l-346 144v105l469 -195v-102z" />
<glyph unicode="?" horiz-adv-x="542" d="M35 513q6 95 70 148.5t169 53.5t166.5 -49.5t61.5 -137.5q0 -40 -12 -71.5t-30 -50t-40 -35.5t-42 -28.5t-35.5 -29.5t-20.5 -37.5t3 -53.5h-127q-11 56 2.5 93.5t40.5 57.5t56 37.5t50.5 46.5t21.5 71q0 43 -25 66.5t-70 23.5q-43 0 -70.5 -26.5t-32.5 -78.5h-136z M186 63q0 34 22 56t56 22t55.5 -22t21.5 -56t-21.5 -56t-55.5 -22t-56 22t-22 56z" />
<glyph unicode="@" horiz-adv-x="1070" d="M60 183q0 231 158 381.5t409 150.5q161 0 269.5 -95.5t108.5 -250.5q0 -94 -29 -170t-75.5 -121t-98.5 -69t-102 -24q-43 0 -74 18t-39 56q-81 -74 -167 -74q-65 0 -105.5 55.5t-40.5 152.5q0 155 81 250t188 95q70 0 110 -62l-13 -74q-32 43 -84 43q-62 0 -107.5 -65.5 t-45.5 -173.5q0 -61 22.5 -94.5t55.5 -33.5q59 0 109 45v-2l71 399h125l-70 -393q-9 -58 29 -58q58 0 105 86t47 203q0 125 -75 200.5t-214 75.5q-120 0 -219 -52t-159.5 -152.5t-60.5 -230.5q0 -172 93 -256.5t248 -84.5q58 0 132 13t117 29l-14 -80q-46 -17 -121.5 -30 t-142.5 -13q-82 0 -156.5 25.5t-134 74t-95 128t-35.5 178.5z" />
<glyph unicode="A" horiz-adv-x="653" d="M10 0l244 700h136l253 -700h-140l-59 173h-254l-55 -173h-125zM221 270h191l-49 144l-49 166l-47 -166z" />
<glyph unicode="B" horiz-adv-x="641" d="M81 0v700h233q50 0 92.5 -8.5t80 -28t59 -55.5t21.5 -86q0 -52 -30 -95.5t-79 -58.5q65 -13 101 -53.5t36 -107.5q0 -101 -73 -154t-186 -53h-255zM212 97h124q127 0 127 110q0 99 -127 99h-124v-209zM212 401h102q55 0 88 27t33 81q0 94 -121 94h-102v-202z" />
<glyph unicode="C" horiz-adv-x="672" d="M45 350q0 165 84 265t222 100q120 0 194 -63.5t86 -189.5h-139q-18 154 -141 154q-76 0 -121.5 -69.5t-45.5 -196.5q0 -129 43 -197.5t124 -68.5q124 0 141 154h139q-12 -126 -86 -189.5t-194 -63.5q-149 0 -227.5 97.5t-78.5 267.5z" />
<glyph unicode="D" horiz-adv-x="712" d="M81 0v700h228q162 0 260 -93.5t98 -256.5t-98 -256.5t-260 -93.5h-228zM212 99h97q100 0 159.5 63t59.5 188t-59.5 188t-159.5 63h-97v-502z" />
<glyph unicode="E" horiz-adv-x="561" d="M81 0v700h425v-99h-294v-183h274v-99h-274v-220h294v-99h-425z" />
<glyph unicode="F" horiz-adv-x="532" d="M81 0v700h415v-99h-284v-203h264v-100h-264v-298h-131z" />
<glyph unicode="G" horiz-adv-x="687" d="M45 350q0 166 84 265.5t225 99.5q115 0 186.5 -59.5t85.5 -174.5h-139q-18 135 -133 135q-78 0 -124 -69.5t-46 -196.5q0 -129 48 -198t126 -69q38 0 77 17t66 42v118h-147v94h273v-354h-126v66q-31 -35 -83 -58t-103 -23q-128 0 -199 97t-71 268z" />
<glyph unicode="H" horiz-adv-x="736" d="M81 0v700h131v-282h313v282h130v-700h-130v319h-313v-319h-131z" />
<glyph unicode="I" horiz-adv-x="293" d="M81 0v700h131v-700h-131z" />
<glyph unicode="J" horiz-adv-x="584" d="M30 233h133q3 -82 30 -116.5t80 -34.5q109 0 109 116v502h131v-482q0 -116 -70 -174.5t-170 -58.5q-238 0 -243 248z" />
<glyph unicode="K" horiz-adv-x="638" d="M81 0v700h131v-323l235 323h131l-241 -321l280 -379h-157l-248 352v-352h-131z" />
<glyph unicode="L" horiz-adv-x="522" d="M81 0v700h131v-601h264v-99h-395z" />
<glyph unicode="M" horiz-adv-x="859" d="M81 0v700h141l212 -514l212 514h132v-700h-123v334l3 148l-169 -423h-117l-175 430l3 -159v-330h-119z" />
<glyph unicode="N" horiz-adv-x="722" d="M81 0v700h126l317 -505l-2 158v347h119v-700h-126l-318 505l3 -158v-347h-119z" />
<glyph unicode="O" horiz-adv-x="742" d="M45 350q0 166 88 265.5t238 99.5q149 0 237 -99.5t88 -265.5t-88 -265.5t-237 -99.5q-150 0 -238 99.5t-88 265.5zM184 350q0 -128 50 -197t137 -69t136.5 69t49.5 197t-49.5 197t-136.5 69t-137 -69t-50 -197z" />
<glyph unicode="P" horiz-adv-x="608" d="M81 0v700h233q107 0 183 -59.5t76 -171.5t-76 -172t-183 -60h-102v-237h-131zM212 335h102q55 0 90.5 34t35.5 100q0 65 -35.5 99.5t-90.5 34.5h-102v-268z" />
<glyph unicode="Q" horiz-adv-x="742" d="M45 350q0 166 88 265.5t238 99.5q149 0 237 -99.5t88 -265.5q0 -117 -45 -203t-127 -128l152 -170h-161l-118 137q-8 -1 -26 -1q-150 0 -238 99.5t-88 265.5zM184 350q0 -128 50 -197t137 -69t136.5 69t49.5 197t-49.5 197t-136.5 69t-137 -69t-50 -197z" />
<glyph unicode="R" horiz-adv-x="625" d="M81 0v700h228q108 0 183.5 -54.5t75.5 -164.5q0 -80 -41.5 -130.5t-109.5 -72.5l187 -278h-152l-162 262h-78v-262h-131zM212 356h97q56 0 91 30.5t35 94.5q0 63 -35 92.5t-91 29.5h-97v-247z" />
<glyph unicode="S" horiz-adv-x="620" d="M45 211h136q9 -129 138 -129q56 0 92.5 27.5t36.5 78.5q0 38 -25 62t-48 31.5t-77 18.5q-11 3 -17 4q-29 6 -46 10.5t-44.5 13.5t-44 18.5t-36.5 25t-31 34t-18.5 45t-7.5 58.5q0 93 69.5 149.5t178.5 56.5q251 0 265 -217h-135q-10 120 -130 120q-54 0 -87.5 -24 t-33.5 -72q0 -38 24.5 -62t48.5 -32t78 -19q8 -2 13 -3q28 -6 41 -9t39 -10t40 -14t34.5 -18t31.5 -24.5t23 -31.5t17 -41.5t5 -51.5q0 -96 -75 -158.5t-181 -62.5q-127 0 -198 56.5t-76 169.5z" />
<glyph unicode="T" horiz-adv-x="558" d="M30 601v99h498v-99h-184v-601h-130v601h-184z" />
<glyph unicode="U" horiz-adv-x="706" d="M71 231v469h131v-449q0 -83 36 -125t116 -42q79 0 117.5 39t38.5 108v469h119v-449q0 -129 -74 -197.5t-201 -68.5q-129 0 -206 63t-77 183z" />
<glyph unicode="V" horiz-adv-x="644" d="M10 700h140l135 -396l49 -166l48 166l127 396h125l-240 -700h-136z" />
<glyph unicode="W" horiz-adv-x="938" d="M10 700h139l94 -384l35 -166l38 166l97 384h133l100 -384l38 -168l35 168l86 384h123l-182 -700h-137l-98 363l-39 168l-39 -168l-95 -363h-137z" />
<glyph unicode="X" horiz-adv-x="602" d="M15 0l215 353l-210 347h141l141 -239l136 239h126l-201 -332l223 -368h-141l-154 261l-149 -261h-127z" />
<glyph unicode="Y" horiz-adv-x="604" d="M21 700h140l156 -342l149 342h117l-212 -445v-255h-131v255z" />
<glyph unicode="Z" horiz-adv-x="545" d="M40 0v99l318 502h-313v99h460v-99l-317 -502h317v-99h-465z" />
<glyph unicode="[" horiz-adv-x="368" d="M120 -125v950h228v-85h-97v-780h97v-85h-228z" />
<glyph unicode="\" horiz-adv-x="483" d="M20 740h128l315 -780h-128z" />
<glyph unicode="]" horiz-adv-x="368" d="M20 -40h98v780h-98v85h228v-950h-228v85z" />
<glyph unicode="^" horiz-adv-x="541" d="M50 300l170 400h101l170 -400h-107l-116 278l-118 -278h-100z" />
<glyph unicode="_" horiz-adv-x="500" d="M40 -15h420v-99h-420v99z" />
<glyph unicode="`" horiz-adv-x="354" d="M50 740h152l102 -157h-102z" />
<glyph unicode="a" horiz-adv-x="563" d="M41 125q0 73 60.5 121t190.5 48q21 0 75 -4v57q0 104 -86 104q-49 0 -73 -24t-26 -81h-125q3 93 62.5 141t161.5 48q31 0 59 -4.5t56.5 -16.5t49 -31t33.5 -50t13 -71v-362h-125v58q-76 -73 -168 -73q-75 0 -116.5 37.5t-41.5 102.5zM166 142q0 -68 87 -68 q29 0 60.5 15.5t53.5 38.5v92q-37 3 -68 3q-133 0 -133 -81z" />
<glyph unicode="b" horiz-adv-x="595" d="M71 0v744h125v-276q69 67 155 67q88 0 143 -73t55 -202q0 -126 -64.5 -200.5t-155.5 -74.5q-82 0 -133 61v-46h-125zM196 121q45 -43 103 -43q53 0 87.5 46.5t34.5 135.5q0 90 -31 136t-83 46q-64 0 -111 -45v-276z" />
<glyph unicode="c" horiz-adv-x="548" d="M45 260q0 126 64 200.5t177 74.5q100 0 159 -51t67 -142h-126q-7 59 -30.5 84t-69.5 25q-52 0 -82 -48t-30 -143q0 -191 112 -191q43 0 67 24.5t32 79.5h126q-10 -88 -68.5 -138t-156.5 -50q-119 0 -180 73.5t-61 201.5z" />
<glyph unicode="d" horiz-adv-x="595" d="M45 260q0 126 64.5 200.5t156.5 74.5q81 0 133 -61v270h125v-744h-125v53q-68 -68 -156 -68t-143 73.5t-55 201.5zM174 260q0 -90 31 -136t83 -46q63 0 111 46v276q-44 42 -103 42q-53 0 -87.5 -46.5t-34.5 -135.5z" />
<glyph unicode="e" horiz-adv-x="557" d="M45 260q0 124 64.5 199.5t171.5 75.5q115 1 177 -75q53 -65 53 -181q0 -19 -1 -39h-341q5 -171 113 -171q80 0 96 82h126q-9 -75 -69 -120.5t-153 -45.5q-118 0 -177.5 73.5t-59.5 201.5zM172 315h212q-3 138 -103 138q-94 0 -109 -138z" />
<glyph unicode="f" horiz-adv-x="386" d="M20 435v85h85v73q0 83 46 124.5t128 41.5q58 0 92 -17v-79q-33 9 -65 9q-76 0 -76 -79v-73h141v-85h-141v-435h-125v435h-85z" />
<glyph unicode="g" horiz-adv-x="595" d="M45 264q0 126 64.5 198.5t156.5 72.5q81 0 133 -61v46h125v-519q0 -110 -70 -167t-167 -57q-107 0 -167 44t-62 132h125q2 -50 28 -71t76 -21q112 0 112 126v73q-68 -68 -156 -68t-143 72t-55 200zM174 264q0 -89 31 -134t83 -45q63 0 111 46v269q-44 42 -103 42 q-54 0 -88 -45t-34 -133z" />
<glyph unicode="h" horiz-adv-x="605" d="M71 0v744h125v-292q80 83 181 83q69 0 113 -40.5t44 -130.5v-364h-125v340q0 95 -90 95q-31 0 -65.5 -15.5t-57.5 -38.5v-381h-125z" />
<glyph unicode="i" horiz-adv-x="267" d="M58 663q0 32 21.5 53.5t53.5 21.5q33 0 54.5 -21.5t21.5 -53.5t-21.5 -53.5t-54.5 -21.5q-32 0 -53.5 21.5t-21.5 53.5zM71 0v520h125v-520h-125z" />
<glyph unicode="j" horiz-adv-x="267" d="M58 663q0 32 21.5 53.5t53.5 21.5q33 0 54.5 -21.5t21.5 -53.5t-21.5 -53.5t-54.5 -21.5q-32 0 -53.5 21.5t-21.5 53.5zM71 -208v728h125v-728h-125z" />
<glyph unicode="k" horiz-adv-x="540" d="M71 0v744h125v-458l189 234h127l-197 -230l216 -290h-148l-187 262v-262h-125z" />
<glyph unicode="l" horiz-adv-x="267" d="M71 0v744h125v-744h-125z" />
<glyph unicode="m" horiz-adv-x="932" d="M71 0v520h125v-68q80 83 178 83q107 0 141 -88q87 88 192 88q68 0 111 -40.5t43 -130.5v-364h-125v340q0 50 -21.5 72.5t-65.5 22.5q-65 0 -121 -54v-17v-364h-125v340q0 50 -21.5 72.5t-65.5 22.5q-31 0 -64 -15.5t-56 -38.5v-381h-125z" />
<glyph unicode="n" horiz-adv-x="605" d="M71 0v520h125v-68q80 83 181 83q69 0 113 -40.5t44 -130.5v-364h-125v340q0 95 -90 95q-31 0 -65.5 -15.5t-57.5 -38.5v-381h-125z" />
<glyph unicode="o" horiz-adv-x="592" d="M45 260q0 126 66.5 200.5t184.5 74.5q117 0 183.5 -74.5t66.5 -200.5q0 -125 -66.5 -200t-183.5 -75q-118 0 -184.5 75t-66.5 200zM174 260q0 -191 122 -191q58 0 90 47.5t32 143.5t-32 143.5t-90 47.5q-122 0 -122 -191z" />
<glyph unicode="p" horiz-adv-x="595" d="M71 -208v728h125v-52q69 67 155 67q88 0 143 -73t55 -202q0 -126 -64.5 -200.5t-155.5 -74.5q-82 0 -133 61v-254h-125zM196 121q45 -43 103 -43q53 0 87.5 46.5t34.5 135.5q0 90 -31 136t-83 46q-64 0 -111 -45v-276z" />
<glyph unicode="q" horiz-adv-x="595" d="M45 260q0 126 64.5 200.5t156.5 74.5q81 0 133 -61v46h125v-728h-125v261q-68 -68 -156 -68t-143 73.5t-55 201.5zM174 260q0 -90 31 -136t83 -46q63 0 111 46v276q-44 42 -103 42q-53 0 -87.5 -46.5t-34.5 -135.5z" />
<glyph unicode="r" horiz-adv-x="429" d="M71 0v520h125v-93q28 51 67 79.5t78 28.5q36 0 63 -22v-107q-38 16 -72 16q-41 0 -78.5 -23t-57.5 -56v-343h-125z" />
<glyph unicode="s" horiz-adv-x="515" d="M41 153h123q5 -87 103 -87q42 0 68 18.5t26 55.5q0 24 -19.5 39.5t-37 20t-59.5 12.5q-6 1 -9 2q-34 6 -54.5 11t-50 17t-46 27.5t-29 41.5t-12.5 61q0 77 57.5 120t148.5 43q206 0 211 -153h-123q-3 38 -24.5 55t-66.5 17q-40 0 -65 -16t-25 -48q0 -15 6.5 -26.5t13 -18 t25.5 -13t28.5 -8.5t36.5 -7q7 -1 10 -2q27 -5 39 -7.5t37.5 -9t38.5 -13t31.5 -18.5t27.5 -26.5t16 -35.5t7 -46q0 -77 -59.5 -125.5t-150.5 -48.5q-218 0 -223 168z" />
<glyph unicode="t" horiz-adv-x="407" d="M20 435v85h85v140h125v-140h137v-85h-137v-277q0 -86 67 -86q29 0 75 14v-78q-53 -23 -117 -23q-68 0 -109 37t-41 114v299h-85z" />
<glyph unicode="u" d="M71 156v364h125v-339q0 -96 88 -96q31 0 64 15.5t56 38.5v381h125v-520h-125v68q-81 -83 -178 -83q-69 0 -112 40.5t-43 130.5z" />
<glyph unicode="v" horiz-adv-x="532" d="M15 520h137l77 -232l48 -161l47 161l75 232h117l-185 -520h-124z" />
<glyph unicode="w" horiz-adv-x="814" d="M15 520h131l64 -229l40 -162l43 162l65 229h111l68 -229l44 -162l39 162l63 229h116l-165 -520h-119l-63 212l-43 162l-44 -162l-61 -212h-121z" />
<glyph unicode="x" horiz-adv-x="532" d="M15 0l181 263l-173 257h133l109 -166l108 166h120l-166 -241l189 -279h-133l-125 189l-123 -189h-120z" />
<glyph unicode="y" horiz-adv-x="527" d="M15 520h137l72 -209l49 -162l50 162l71 209h118l-264 -728h-113l78 211z" />
<glyph unicode="z" horiz-adv-x="453" d="M35 0v86l249 349h-239v85h373v-85l-248 -349h248v-86h-383z" />
<glyph unicode="{" horiz-adv-x="390" d="M42 303v94q100 0 100 81v173q0 87 53 130.5t148 43.5h27v-85h-27q-37 0 -53.5 -23t-16.5 -56v-174q0 -51 -26 -88.5t-66 -48.5q40 -11 66 -49t26 -90v-172q0 -33 16.5 -56t53.5 -23h27v-85h-27q-95 0 -148 43.5t-53 130.5v172q0 82 -100 82z" />
<glyph unicode="|" horiz-adv-x="299" d="M90 -160v980h119v-980h-119z" />
<glyph unicode="}" horiz-adv-x="390" d="M20 -40h27q37 0 54 23t17 56v172q0 52 25.5 90t65.5 49q-40 11 -65.5 48.5t-25.5 88.5v174q0 33 -17 56t-54 23h-27v85h27q95 0 148 -43.5t53 -130.5v-173q0 -81 100 -81v-94q-100 0 -100 -82v-172q0 -87 -53 -130.5t-148 -43.5h-27v85z" />
<glyph unicode="~" horiz-adv-x="602" d="M39 326q53 129 161 129q41 0 78.5 -19.5t68.5 -38.5t55 -19q42 0 78 70l83 -42q-53 -129 -161 -129q-41 0 -78.5 19.5t-68.5 38.5t-55 19q-41 0 -78 -70z" />
<glyph unicode="&#xa1;" horiz-adv-x="320" d="M82 429q0 34 22 56t56 22t56 -22t22 -56t-22 -56t-56 -22t-56 22t-22 56zM89 -208l22 478h99l21 -478h-142z" />
<glyph unicode="&#xa2;" horiz-adv-x="548" d="M45 260q0 107 46.5 178t132.5 90v112h119v-110q75 -13 118.5 -62t50.5 -126h-126q-7 59 -30.5 84t-69.5 25q-52 0 -82 -48t-30 -143q0 -191 112 -191q43 0 67 24.5t32 79.5h126q-8 -74 -51.5 -122t-116.5 -61v-110h-119v111q-89 18 -134 89t-45 180z" />
<glyph unicode="&#xa3;" horiz-adv-x="587" d="M29 0v99h81v191h-81v100h81v113q0 99 61.5 155.5t161.5 56.5q108 0 167.5 -52t65.5 -154h-136q-9 109 -97 109q-40 0 -66.5 -24.5t-26.5 -76.5v-127h205v-100h-205v-191h304v-99h-515z" />
<glyph unicode="&#xa4;" horiz-adv-x="662" d="M36 587l70 70l81 -80q61 39 144 39t144 -39l81 80l70 -70l-81 -81q39 -62 39 -146q0 -83 -39 -147l80 -80l-70 -70l-80 80q-62 -39 -144 -39t-144 39l-80 -80l-70 70l80 80q-39 64 -39 147q0 84 39 146zM206 360q0 -83 33.5 -127.5t91.5 -44.5t91.5 44.5t33.5 127.5 t-33.5 127t-91.5 44t-91.5 -44t-33.5 -127z" />
<glyph unicode="&#xa5;" horiz-adv-x="604" d="M21 700h140l154 -267l151 267h117l-183 -310h137v-100h-166v-104h166v-100h-166v-86h-131v86h-167v100h167v104h-167v100h137z" />
<glyph unicode="&#xa6;" horiz-adv-x="299" d="M90 -160v455h119v-455h-119zM90 420v400h119v-400h-119z" />
<glyph unicode="&#xa7;" horiz-adv-x="628" d="M45 340q0 76 78 134q-62 44 -62 133q0 90 69 144t179 54q251 0 265 -217h-136q-5 63 -37.5 91.5t-91.5 28.5q-55 0 -88 -22t-33 -65q0 -21 8.5 -37t20.5 -25.5t34.5 -16.5t40.5 -10t47 -7q116 -14 160 -34q83 -37 83 -131q0 -76 -77 -134q62 -44 62 -133 q0 -90 -69.5 -144t-178.5 -54q-251 0 -265 217h135q11 -120 130 -120q55 0 88 22t33 65q0 21 -8.5 37t-20.5 25.5t-34.5 16.5t-40.5 10t-47 7q-117 14 -161 34q-83 37 -83 131zM164 366q0 -19 8 -33.5t19 -22.5t32.5 -14t38 -9t45.5 -6q81 -10 124 -22q33 31 33 75 q0 24 -10.5 39.5t-33.5 24.5t-43 13t-56 8q-80 10 -124 21q-33 -30 -33 -74z" />
<glyph unicode="&#xa8;" horiz-adv-x="449" d="M50 663q0 31 21 52t52 21t52 -21t21 -52t-21 -51.5t-52 -20.5t-52 20.5t-21 51.5zM253 663q0 31 21 52t52 21t52 -21t21 -52t-21 -51.5t-52 -20.5t-52 20.5t-21 51.5z" />
<glyph unicode="&#xa9;" horiz-adv-x="830" d="M50 350q0 152 105 258.5t260 106.5t260 -106.5t105 -258.5t-105 -258.5t-260 -106.5t-260 106.5t-105 258.5zM129 350q0 -122 82.5 -207t203.5 -85t203.5 85t82.5 207t-82.5 207t-203.5 85t-203.5 -85t-82.5 -207zM230 350q0 97 50.5 155.5t131.5 58.5q71 0 117 -37 t53 -111h-94q-5 41 -23 60.5t-53 19.5q-41 0 -64.5 -38.5t-23.5 -107.5q0 -147 88 -147q35 0 53 19.5t23 61.5h94q-7 -74 -53 -111.5t-117 -37.5q-88 0 -135 57.5t-47 157.5z" />
<glyph unicode="&#xaa;" horiz-adv-x="342" d="M21 515q0 96 156 96q10 0 44 -2v29q0 47 -49 47q-51 0 -53 -48h-90q1 53 41 81.5t102 28.5q34 0 62.5 -7.5t52.5 -31.5t24 -62v-206h-90v29q-44 -38 -101 -38q-48 0 -73.5 23t-25.5 61zM112 525q0 -34 43 -34q35 0 66 26v43q-22 3 -40 3q-69 0 -69 -38z" />
<glyph unicode="&#xab;" horiz-adv-x="577" d="M50 218v111l240 191v-134l-139 -109l139 -109v-141zM287 218v111l240 191v-134l-139 -109l139 -109v-141z" />
<glyph unicode="&#xac;" horiz-adv-x="569" d="M50 316v100h469v-285h-99v185h-370z" />
<glyph unicode="&#xad;" horiz-adv-x="344" d="M50 227v99h244v-99h-244z" />
<glyph unicode="&#xae;" horiz-adv-x="578" d="M50 477q0 100 68.5 169t170.5 69t170.5 -69t68.5 -169t-68.5 -169t-170.5 -69t-170.5 69t-68.5 169zM112 477q0 -76 51 -129t126 -53t125.5 53t50.5 129t-50.5 128.5t-125.5 52.5t-126 -52.5t-51 -128.5zM198 353v255h87q40 0 70.5 -20t30.5 -59q0 -53 -55 -73l66 -103 h-68l-57 95h-13v-95h-61zM259 494h26q40 0 40 35q0 33 -40 33h-26v-68z" />
<glyph unicode="&#xaf;" horiz-adv-x="408" d="M50 612v86h308v-86h-308z" />
<glyph unicode="&#xb0;" horiz-adv-x="428" d="M50 551q0 71 47 117.5t117 46.5t117 -46.5t47 -117.5t-47 -117.5t-117 -46.5t-117 46.5t-47 117.5zM135 551q0 -36 22 -59.5t57 -23.5t57 23.5t22 59.5t-22 59.5t-57 23.5t-57 -23.5t-22 -59.5z" />
<glyph unicode="&#xb1;" horiz-adv-x="569" d="M50 0v99h469v-99h-469zM50 348v99h184v184h100v-184h185v-99h-185v-186h-100v186h-184z" />
<glyph unicode="&#xb4;" horiz-adv-x="354" d="M50 583l102 157h152l-153 -157h-101z" />
<glyph unicode="&#xb5;" d="M71 -208v728h125v-339q0 -96 88 -96q31 0 64 15.5t56 38.5v381h125v-520h-125v68q-65 -67 -142 -76q-33 -4 -66 4v-204h-125z" />
<glyph unicode="&#xb6;" horiz-adv-x="690" d="M51 499q0 100 69 150.5t166 50.5h304v-700h-99v603h-71v-603h-99v297h-35q-62 0 -113 19.5t-86.5 67t-35.5 115.5z" />
<glyph unicode="&#xb7;" horiz-adv-x="256" d="M50 365q0 34 22 56t56 22t56 -22t22 -56t-22 -56t-56 -22t-56 22t-22 56z" />
<glyph unicode="&#xb8;" horiz-adv-x="302" d="M50 -175q27 -13 64 -13q20 0 34.5 9t14.5 27q0 17 -14.5 26t-34.5 9q-21 0 -39 -6l-22 39l63 84h73l-48 -64q45 2 78 -19t33 -65q0 -47 -38 -73.5t-92 -26.5q-43 0 -72 14v59z" />
<glyph unicode="&#xba;" horiz-adv-x="345" d="M15 589q0 71 43.5 114.5t114.5 43.5t114 -43.5t43 -114.5t-43 -114.5t-114 -43.5t-114.5 43.5t-43.5 114.5zM108 589q0 -96 65 -96t65 96t-65 96t-65 -96z" />
<glyph unicode="&#xbb;" horiz-adv-x="577" d="M50 27v134l138 110l-138 108v141l240 -191v-111zM287 27v134l138 110l-138 108v141l240 -191v-111z" />
<glyph unicode="&#xbc;" horiz-adv-x="881" d="M49 556v91l105 53h105v-420h-105v330zM137 0l453 700h124l-453 -700h-124zM482 65v80l128 275h101l-129 -275h89v89h98v-89h62v-80h-62v-65h-98v65h-189z" />
<glyph unicode="&#xbd;" horiz-adv-x="911" d="M49 556v91l105 53h105v-420h-105v330zM137 0l453 700h124l-453 -700h-124zM531 291q4 67 48.5 102.5t118.5 35.5q73 0 116.5 -34t43.5 -96q0 -28 -8.5 -50.5t-35 -51t-51.5 -50t-82 -68.5h180v-79h-318v79q22 18 52.5 43t47 38.5t37.5 31.5t32 30t22 26t15 26t4 25 q0 55 -55 55q-54 0 -60 -63h-107z" />
<glyph unicode="&#xbe;" horiz-adv-x="954" d="M49 395h107q6 -49 68 -49q66 0 66 54q0 56 -85 56h-51v77h51q73 0 73 54q0 47 -55 47t-62 -49h-107q5 59 50.5 91.5t118.5 32.5q71 0 115.5 -31.5t44.5 -87.5q0 -30 -20 -55.5t-58 -35.5q89 -16 89 -99q0 -58 -49.5 -93.5t-120.5 -35.5q-80 0 -125.5 32t-49.5 92zM210 0 l453 700h124l-453 -700h-124zM555 65v80l128 275h101l-129 -275h89v89h98v-89h62v-80h-62v-65h-98v65h-189z" />
<glyph unicode="&#xbf;" horiz-adv-x="542" d="M40 -36q0 40 12 71.5t30 50t40 35.5t42 28.5t35.5 29.5t20.5 37.5t-3 53.5h127q11 -56 -2.5 -93.5t-40.5 -57.5t-56 -37.5t-50.5 -46.5t-21.5 -71q0 -43 25 -66.5t70 -23.5q43 0 70.5 26.5t32.5 78.5h135q-5 -95 -69 -148.5t-169 -53.5t-166.5 49.5t-61.5 137.5zM201 429 q0 34 21.5 56t55.5 22t56 -22t22 -56t-22 -56t-56 -22t-55.5 22t-21.5 56z" />
<glyph unicode="&#xc0;" horiz-adv-x="653" d="M10 0l244 700h136l253 -700h-140l-59 173h-254l-55 -173h-125zM139 894h162l132 -143h-107zM221 270h191l-49 144l-49 166l-47 -166z" />
<glyph unicode="&#xc1;" horiz-adv-x="653" d="M10 0l244 700h136l253 -700h-140l-59 173h-254l-55 -173h-125zM208 751l132 143h162l-187 -143h-107zM221 270h191l-49 144l-49 166l-47 -166z" />
<glyph unicode="&#xc2;" horiz-adv-x="653" d="M10 0l244 700h136l253 -700h-140l-59 173h-254l-55 -173h-125zM111 751l149 143h121l149 -143h-116l-94 64l-93 -64h-116zM221 270h191l-49 144l-49 166l-47 -166z" />
<glyph unicode="&#xc3;" horiz-adv-x="653" d="M10 0l244 700h136l253 -700h-140l-59 173h-254l-55 -173h-125zM126 794q19 50 50.5 76.5t67.5 26.5q32 0 85 -22t66 -22q33 0 52 41l67 -32q-18 -50 -49.5 -76.5t-67.5 -26.5q-31 0 -84.5 22t-67.5 22q-31 0 -52 -41zM221 270h191l-49 144l-49 166l-47 -166z" />
<glyph unicode="&#xc4;" horiz-adv-x="653" d="M10 0l244 700h136l253 -700h-140l-59 173h-254l-55 -173h-125zM136 830q0 31 21 51t53 20q31 0 52 -20t21 -51t-21 -51t-52 -20q-32 0 -53 20t-21 51zM221 270h191l-49 144l-49 166l-47 -166zM356 830q0 31 21 51t53 20q31 0 52 -20t21 -51t-21 -51t-52 -20q-32 0 -53 20 t-21 51z" />
<glyph unicode="&#xc5;" horiz-adv-x="653" d="M10 0l244 700h136l253 -700h-140l-59 173h-254l-55 -173h-125zM198 822q0 46 35 73.5t87 27.5t87 -27.5t35 -73.5t-35 -73.5t-87 -27.5t-87 27.5t-35 73.5zM221 270h191l-49 144l-49 166l-47 -166zM294 804q17 -28 45 -9q26 16 7 45q-17 26 -45 9q-26 -18 -7 -45z" />
<glyph unicode="&#xc6;" horiz-adv-x="965" d="M5 0l471 700h434v-99h-295v-183h275v-99h-275v-220h295v-99h-425v173h-226l-110 -173h-144zM321 270h164v262l-86 -140z" />
<glyph unicode="&#xc7;" horiz-adv-x="672" d="M45 350q0 165 84 265t222 100q120 0 194 -63.5t86 -189.5h-139q-18 154 -141 154q-76 0 -121.5 -69.5t-45.5 -196.5q0 -129 43 -197.5t124 -68.5q124 0 141 154h139q-11 -121 -80.5 -184.5t-181.5 -68.5l-37 -49q45 2 78 -19t33 -65q0 -47 -38 -73.5t-92 -26.5 q-43 0 -72 14v59q27 -13 64 -13q20 0 34.5 9t14.5 27q0 17 -14.5 26t-34.5 9q-21 0 -39 -6l-22 39l54 72q-124 18 -188.5 113t-64.5 249z" />
<glyph unicode="&#xc8;" horiz-adv-x="561" d="M81 0v700h425v-99h-294v-183h274v-99h-274v-220h294v-99h-425zM101 894h162l132 -143h-107z" />
<glyph unicode="&#xc9;" horiz-adv-x="561" d="M81 0v700h425v-99h-294v-183h274v-99h-274v-220h294v-99h-425zM171 751l132 143h162l-187 -143h-107z" />
<glyph unicode="&#xca;" horiz-adv-x="561" d="M81 0v700h425v-99h-294v-183h274v-99h-274v-220h294v-99h-425zM84 751l149 143h121l149 -143h-116l-94 64l-93 -64h-116z" />
<glyph unicode="&#xcb;" horiz-adv-x="561" d="M81 0v700h425v-99h-294v-183h274v-99h-274v-220h294v-99h-425zM109 830q0 31 21 51t53 20q31 0 52 -20t21 -51t-21 -51t-52 -20q-32 0 -53 20t-21 51zM329 830q0 31 21 51t53 20q31 0 52 -20t21 -51t-21 -51t-52 -20q-32 0 -53 20t-21 51z" />
<glyph unicode="&#xcc;" horiz-adv-x="293" d="M-66 894h162l132 -143h-107zM81 0v700h131v-700h-131z" />
<glyph unicode="&#xcd;" horiz-adv-x="293" d="M45 751l132 143h162l-187 -143h-107zM81 0v700h131v-700h-131z" />
<glyph unicode="&#xce;" horiz-adv-x="293" d="M-63 751l149 143h121l149 -143h-116l-94 64l-93 -64h-116zM81 0v700h131v-700h-131z" />
<glyph unicode="&#xcf;" horiz-adv-x="293" d="M-14 830q0 31 21 51t53 20q31 0 52 -20t21 -51t-21 -51t-52 -20q-32 0 -53 20t-21 51zM81 0v700h131v-700h-131zM159 830q0 31 21 51t52 20q32 0 53 -20t21 -51t-21 -51t-53 -20q-31 0 -52 20t-21 51z" />
<glyph unicode="&#xd0;" horiz-adv-x="712" d="M-20 298v100h101v302h228q162 0 260 -93.5t98 -256.5t-98 -256.5t-260 -93.5h-228v298h-101zM212 99h97q100 0 159.5 63t59.5 188t-59.5 188t-159.5 63h-97v-203h145v-100h-145v-199z" />
<glyph unicode="&#xd1;" horiz-adv-x="722" d="M81 0v700h126l317 -505l-2 158v347h119v-700h-126l-318 505l3 -158v-347h-119zM166 794q19 50 50.5 76.5t67.5 26.5q32 0 85 -22t66 -22q33 0 52 41l67 -32q-18 -50 -49.5 -76.5t-67.5 -26.5q-31 0 -84.5 22t-67.5 22q-31 0 -52 -41z" />
<glyph unicode="&#xd2;" horiz-adv-x="742" d="M45 350q0 166 88 265.5t238 99.5q149 0 237 -99.5t88 -265.5t-88 -265.5t-237 -99.5q-150 0 -238 99.5t-88 265.5zM184 350q0 -128 50 -197t137 -69t136.5 69t49.5 197t-49.5 197t-136.5 69t-137 -69t-50 -197zM189 894h162l132 -143h-107z" />
<glyph unicode="&#xd3;" horiz-adv-x="742" d="M45 350q0 166 88 265.5t238 99.5q149 0 237 -99.5t88 -265.5t-88 -265.5t-237 -99.5q-150 0 -238 99.5t-88 265.5zM184 350q0 -128 50 -197t137 -69t136.5 69t49.5 197t-49.5 197t-136.5 69t-137 -69t-50 -197zM258 751l132 143h162l-187 -143h-107z" />
<glyph unicode="&#xd4;" horiz-adv-x="742" d="M45 350q0 166 88 265.5t238 99.5q149 0 237 -99.5t88 -265.5t-88 -265.5t-237 -99.5q-150 0 -238 99.5t-88 265.5zM161 751l149 143h121l149 -143h-116l-94 64l-93 -64h-116zM184 350q0 -128 50 -197t137 -69t136.5 69t49.5 197t-49.5 197t-136.5 69t-137 -69t-50 -197z " />
<glyph unicode="&#xd5;" horiz-adv-x="742" d="M45 350q0 166 88 265.5t238 99.5q149 0 237 -99.5t88 -265.5t-88 -265.5t-237 -99.5q-150 0 -238 99.5t-88 265.5zM177 794q19 50 50.5 76.5t67.5 26.5q32 0 85 -22t66 -22q33 0 52 41l67 -32q-18 -50 -49.5 -76.5t-67.5 -26.5q-31 0 -84.5 22t-67.5 22q-32 0 -52 -41z M184 350q0 -128 50 -197t137 -69t136.5 69t49.5 197t-49.5 197t-136.5 69t-137 -69t-50 -197z" />
<glyph unicode="&#xd6;" horiz-adv-x="742" d="M45 350q0 166 88 265.5t238 99.5q149 0 237 -99.5t88 -265.5t-88 -265.5t-237 -99.5q-150 0 -238 99.5t-88 265.5zM184 350q0 -128 50 -197t137 -69t136.5 69t49.5 197t-49.5 197t-136.5 69t-137 -69t-50 -197zM187 830q0 31 21 51t53 20q31 0 52 -20t21 -51t-21 -51 t-52 -20q-32 0 -53 20t-21 51zM407 830q0 31 21 51t53 20q31 0 52 -20t21 -51t-21 -51t-52 -20q-32 0 -53 20t-21 51z" />
<glyph unicode="&#xd7;" horiz-adv-x="536" d="M62 217l148 148l-148 149l70 70l148 -149l150 150l70 -70l-149 -150l149 -149l-70 -70l-150 149l-148 -148z" />
<glyph unicode="&#xd8;" horiz-adv-x="742" d="M45 350q0 166 88 265.5t238 99.5q64 0 119 -20l51 95h135l-85 -157q105 -100 105 -283q0 -166 -88 -265.5t-237 -99.5q-64 0 -119 20l-51 -95h-136l85 157q-105 100 -105 283zM184 350q0 -98 30 -164l226 417q-30 13 -69 13q-87 0 -137 -69t-50 -197zM302 97 q30 -13 69 -13q87 0 136.5 69t49.5 197q0 98 -30 164z" />
<glyph unicode="&#xd9;" horiz-adv-x="706" d="M71 231v469h131v-449q0 -83 36 -125t116 -42q79 0 117.5 39t38.5 108v469h119v-449q0 -129 -74 -197.5t-201 -68.5q-129 0 -206 63t-77 183zM170 894h162l132 -143h-107z" />
<glyph unicode="&#xda;" horiz-adv-x="706" d="M71 231v469h131v-449q0 -83 36 -125t116 -42q79 0 117.5 39t38.5 108v469h119v-449q0 -129 -74 -197.5t-201 -68.5q-129 0 -206 63t-77 183zM232 751l132 143h162l-187 -143h-107z" />
<glyph unicode="&#xdb;" horiz-adv-x="706" d="M71 231v469h131v-449q0 -83 36 -125t116 -42q79 0 117.5 39t38.5 108v469h119v-449q0 -129 -74 -197.5t-201 -68.5q-129 0 -206 63t-77 183zM140 751l149 143h121l149 -143h-116l-94 64l-93 -64h-116z" />
<glyph unicode="&#xdc;" horiz-adv-x="706" d="M71 231v469h131v-449q0 -83 36 -125t116 -42q79 0 117.5 39t38.5 108v469h119v-449q0 -129 -74 -197.5t-201 -68.5q-129 0 -206 63t-77 183zM166 830q0 31 21 51t53 20q31 0 52 -20t21 -51t-21 -51t-52 -20q-32 0 -53 20t-21 51zM386 830q0 31 21 51t53 20q31 0 52 -20 t21 -51t-21 -51t-52 -20q-32 0 -53 20t-21 51z" />
<glyph unicode="&#xdd;" horiz-adv-x="604" d="M21 700h140l156 -342l149 342h117l-212 -445v-255h-131v255zM188 751l132 143h162l-187 -143h-107z" />
<glyph unicode="&#xde;" horiz-adv-x="608" d="M81 0v700h131v-109h102q107 0 183 -59.5t76 -171.5t-76 -171.5t-183 -59.5h-102v-129h-131zM212 226h102q55 0 90.5 34t35.5 100q0 65 -35.5 99.5t-90.5 34.5h-102v-268z" />
<glyph unicode="&#xdf;" horiz-adv-x="654" d="M71 0v492q0 126 76.5 196.5t187.5 70.5q92 0 154.5 -37.5t62.5 -115.5q0 -34 -17.5 -65t-38 -49.5t-38 -41.5t-17.5 -43q0 -22 19.5 -40.5t47 -35t55 -37t47 -55.5t19.5 -80q0 -80 -58.5 -127t-136.5 -47q-181 0 -187 168h124q3 -87 71 -87q28 0 48 19t20 56 q0 34 -20 59.5t-48 42t-56.5 34t-48.5 46.5t-20 68q0 28 16.5 55.5t37 46t37 45.5t16.5 54q0 40 -24 61.5t-69 21.5q-59 0 -97 -44.5t-38 -138.5v-492h-125z" />
<glyph unicode="&#xe0;" horiz-adv-x="563" d="M41 125q0 73 60.5 121t190.5 48q21 0 75 -4v57q0 104 -86 104q-49 0 -73 -24t-26 -81h-125q3 93 62.5 141t161.5 48q31 0 59 -4.5t56.5 -16.5t49 -31t33.5 -50t13 -71v-362h-125v58q-76 -73 -168 -73q-75 0 -116.5 37.5t-41.5 102.5zM121 740h152l102 -157h-102zM166 142 q0 -68 87 -68q29 0 60.5 15.5t53.5 38.5v92q-37 3 -68 3q-133 0 -133 -81z" />
<glyph unicode="&#xe1;" horiz-adv-x="563" d="M41 125q0 73 60.5 121t190.5 48q21 0 75 -4v57q0 104 -86 104q-49 0 -73 -24t-26 -81h-125q3 93 62.5 141t161.5 48q31 0 59 -4.5t56.5 -16.5t49 -31t33.5 -50t13 -71v-362h-125v58q-76 -73 -168 -73q-75 0 -116.5 37.5t-41.5 102.5zM166 142q0 -68 87 -68 q29 0 60.5 15.5t53.5 38.5v92q-37 3 -68 3q-133 0 -133 -81zM180 583l102 157h152l-153 -157h-101z" />
<glyph unicode="&#xe2;" horiz-adv-x="563" d="M41 125q0 73 60.5 121t190.5 48q21 0 75 -4v57q0 104 -86 104q-49 0 -73 -24t-26 -81h-125q3 93 62.5 141t161.5 48q31 0 59 -4.5t56.5 -16.5t49 -31t33.5 -50t13 -71v-362h-125v58q-76 -73 -168 -73q-75 0 -116.5 37.5t-41.5 102.5zM100 583l118 157h123l118 -157h-102 l-78 79l-78 -79h-101zM166 142q0 -68 87 -68q29 0 60.5 15.5t53.5 38.5v92q-37 3 -68 3q-133 0 -133 -81z" />
<glyph unicode="&#xe3;" horiz-adv-x="563" d="M41 125q0 73 60.5 121t190.5 48q21 0 75 -4v57q0 104 -86 104q-49 0 -73 -24t-26 -81h-125q3 93 62.5 141t161.5 48q31 0 59 -4.5t56.5 -16.5t49 -31t33.5 -50t13 -71v-362h-125v58q-76 -73 -168 -73q-75 0 -116.5 37.5t-41.5 102.5zM95 622q19 50 50.5 76.5t65.5 26.5 q31 0 77.5 -22t59.5 -22q29 0 48 41l67 -32q-18 -49 -49.5 -76t-65.5 -27q-31 0 -77 22t-60 22q-29 0 -49 -41zM166 142q0 -68 87 -68q29 0 60.5 15.5t53.5 38.5v92q-37 3 -68 3q-133 0 -133 -81z" />
<glyph unicode="&#xe4;" horiz-adv-x="563" d="M41 125q0 73 60.5 121t190.5 48q21 0 75 -4v57q0 104 -86 104q-49 0 -73 -24t-26 -81h-125q3 93 62.5 141t161.5 48q31 0 59 -4.5t56.5 -16.5t49 -31t33.5 -50t13 -71v-362h-125v58q-76 -73 -168 -73q-75 0 -116.5 37.5t-41.5 102.5zM104 663q0 31 21 52t52 21t52 -21 t21 -52t-21 -51.5t-52 -20.5t-52 20.5t-21 51.5zM166 142q0 -68 87 -68q29 0 60.5 15.5t53.5 38.5v92q-37 3 -68 3q-133 0 -133 -81zM307 663q0 31 21 52t52 21t52 -21t21 -52t-21 -51.5t-52 -20.5t-52 20.5t-21 51.5z" />
<glyph unicode="&#xe5;" horiz-adv-x="563" d="M41 125q0 73 60.5 121t190.5 48q21 0 75 -4v57q0 104 -86 104q-49 0 -73 -24t-26 -81h-125q3 93 62.5 141t161.5 48q31 0 59 -4.5t56.5 -16.5t49 -31t33.5 -50t13 -71v-362h-125v58q-76 -73 -168 -73q-75 0 -116.5 37.5t-41.5 102.5zM157 660q0 45 34.5 72t87.5 27 t87.5 -27t34.5 -72t-35 -71.5t-87 -26.5t-87 26.5t-35 71.5zM166 142q0 -68 87 -68q29 0 60.5 15.5t53.5 38.5v92q-37 3 -68 3q-133 0 -133 -81zM253 645q17 -28 45 -12q27 15 7 43q-17 27 -45 11q-26 -15 -7 -42z" />
<glyph unicode="&#xe6;" horiz-adv-x="879" d="M41 125q0 73 60.5 121t190.5 48q21 0 75 -4v57q0 104 -86 104q-49 0 -73 -24t-26 -81h-125q3 93 62.5 141t161.5 48q111 0 161 -67q64 67 160 67q116 0 178 -75.5t52 -219.5h-341q4 -171 112 -171q82 0 96 82h126q-9 -76 -68.5 -121t-153.5 -45q-132 0 -192 97 q-97 -97 -212 -97q-75 0 -116.5 37.5t-41.5 102.5zM166 142q0 -35 22.5 -51.5t59.5 -16.5q34 0 71 20t64 49q-11 35 -14 76q-33 4 -70 4q-133 0 -133 -81zM494 315h211q-1 138 -103 138q-93 0 -108 -138z" />
<glyph unicode="&#xe7;" horiz-adv-x="548" d="M45 260q0 126 64 200.5t177 74.5q100 0 159 -51t67 -142h-126q-7 59 -30.5 84t-69.5 25q-52 0 -82 -48t-30 -143q0 -191 112 -191q43 0 67 24.5t32 79.5h126q-9 -83 -62.5 -133t-143.5 -54l-37 -50q45 2 78 -19t33 -65q0 -47 -38 -73.5t-92 -26.5q-43 0 -72 14v59 q27 -13 64 -13q20 0 34.5 9t14.5 27q0 17 -14.5 26t-34.5 9q-21 0 -39 -6l-22 39l55 73q-94 15 -142 86.5t-48 184.5z" />
<glyph unicode="&#xe8;" horiz-adv-x="557" d="M45 260q0 124 64.5 199.5t171.5 75.5q115 0 177 -75.5t52 -219.5h-341q5 -171 113 -171q80 0 96 82h126q-9 -75 -69 -120.5t-153 -45.5q-118 0 -177.5 73.5t-59.5 201.5zM105 740h152l102 -157h-102zM172 315h212q-3 138 -103 138q-94 0 -109 -138z" />
<glyph unicode="&#xe9;" horiz-adv-x="557" d="M45 260q0 124 64.5 199.5t171.5 75.5q115 0 177 -75.5t52 -219.5h-341q5 -171 113 -171q80 0 96 82h126q-9 -75 -69 -120.5t-153 -45.5q-118 0 -177.5 73.5t-59.5 201.5zM172 315h212q-3 138 -103 138q-94 0 -109 -138zM184 583l102 157h152l-153 -157h-101z" />
<glyph unicode="&#xea;" horiz-adv-x="557" d="M45 260q0 124 64.5 199.5t171.5 75.5q115 0 177 -75.5t52 -219.5h-341q5 -171 113 -171q80 0 96 82h126q-9 -75 -69 -120.5t-153 -45.5q-118 0 -177.5 73.5t-59.5 201.5zM100 583l118 157h123l118 -157h-102l-78 79l-78 -79h-101zM172 315h212q-3 138 -103 138 q-94 0 -109 -138z" />
<glyph unicode="&#xeb;" horiz-adv-x="557" d="M45 260q0 124 64.5 199.5t171.5 75.5q115 0 177 -75.5t52 -219.5h-341q5 -171 113 -171q80 0 96 82h126q-9 -75 -69 -120.5t-153 -45.5q-118 0 -177.5 73.5t-59.5 201.5zM105 663q0 31 21 52t52 21t52 -21t21 -52t-21 -51.5t-52 -20.5t-52 20.5t-21 51.5zM172 315h212 q-3 138 -103 138q-94 0 -109 -138zM308 663q0 31 21 52t52 21t52 -21t21 -52t-21 -51.5t-52 -20.5t-52 20.5t-21 51.5z" />
<glyph unicode="&#xec;" horiz-adv-x="267" d="M-66 740h152l102 -157h-102zM71 0v520h125v-520h-125z" />
<glyph unicode="&#xed;" horiz-adv-x="267" d="M71 0v520h125v-520h-125zM71 583l102 157h152l-153 -157h-101z" />
<glyph unicode="&#xee;" horiz-adv-x="267" d="M-45 583l118 157h123l118 -157h-102l-78 79l-78 -79h-101zM71 0v520h125v-520h-125z" />
<glyph unicode="&#xef;" horiz-adv-x="267" d="M-25 663q0 31 21 52t52 21t52 -21t21 -52t-21 -51.5t-52 -20.5t-52 20.5t-21 51.5zM71 0v520h125v-520h-125zM146 663q0 31 21 52t52 21t52 -21t21 -52t-21 -51.5t-52 -20.5t-52 20.5t-21 51.5z" />
<glyph unicode="&#xf0;" horiz-adv-x="589" d="M45 249q0 118 61 191t159 73q59 0 106 -37q-30 66 -80 122l-130 -44l-49 71l114 39q-55 47 -107 80h149q30 -18 61 -45l115 39l50 -71l-97 -33q147 -165 147 -356q0 -132 -65 -212.5t-181 -80.5q-117 0 -185 71t-68 193zM174 250q0 -80 29.5 -130.5t94.5 -50.5 q57 0 88.5 47t31.5 141q0 70 -15 130q-46 43 -103 43q-58 0 -92 -46.5t-34 -133.5z" />
<glyph unicode="&#xf1;" horiz-adv-x="605" d="M71 0v520h125v-68q80 83 181 83q69 0 113 -40.5t44 -130.5v-364h-125v340q0 95 -90 95q-31 0 -65.5 -15.5t-57.5 -38.5v-381h-125zM108 622q19 50 50.5 76.5t65.5 26.5q31 0 77.5 -22t59.5 -22q29 0 48 41l67 -32q-18 -49 -49.5 -76t-65.5 -27q-31 0 -77 22t-60 22 q-28 0 -49 -41z" />
<glyph unicode="&#xf2;" horiz-adv-x="592" d="M45 260q0 126 66.5 200.5t184.5 74.5q117 0 183.5 -74.5t66.5 -200.5q0 -125 -66.5 -200t-183.5 -75q-118 0 -184.5 75t-66.5 200zM140 740h152l102 -157h-102zM174 260q0 -191 122 -191q58 0 90 47.5t32 143.5t-32 143.5t-90 47.5q-122 0 -122 -191z" />
<glyph unicode="&#xf3;" horiz-adv-x="592" d="M45 260q0 126 66.5 200.5t184.5 74.5q117 0 183.5 -74.5t66.5 -200.5q0 -125 -66.5 -200t-183.5 -75q-118 0 -184.5 75t-66.5 200zM174 260q0 -191 122 -191q58 0 90 47.5t32 143.5t-32 143.5t-90 47.5q-122 0 -122 -191zM198 583l102 157h152l-153 -157h-101z" />
<glyph unicode="&#xf4;" horiz-adv-x="592" d="M45 260q0 126 66.5 200.5t184.5 74.5q117 0 183.5 -74.5t66.5 -200.5q0 -125 -66.5 -200t-183.5 -75q-118 0 -184.5 75t-66.5 200zM116 583l118 157h123l118 -157h-102l-78 79l-78 -79h-101zM174 260q0 -191 122 -191q58 0 90 47.5t32 143.5t-32 143.5t-90 47.5 q-122 0 -122 -191z" />
<glyph unicode="&#xf5;" horiz-adv-x="592" d="M45 260q0 126 66.5 200.5t184.5 74.5q117 0 183.5 -74.5t66.5 -200.5q0 -125 -66.5 -200t-183.5 -75q-118 0 -184.5 75t-66.5 200zM112 622q19 50 50.5 76.5t65.5 26.5q31 0 77.5 -22t59.5 -22q29 0 48 41l67 -32q-18 -49 -49.5 -76t-65.5 -27q-31 0 -77 22t-60 22 q-28 0 -49 -41zM174 260q0 -191 122 -191q58 0 90 47.5t32 143.5t-32 143.5t-90 47.5q-122 0 -122 -191z" />
<glyph unicode="&#xf6;" horiz-adv-x="592" d="M45 260q0 126 66.5 200.5t184.5 74.5q117 0 183.5 -74.5t66.5 -200.5q0 -125 -66.5 -200t-183.5 -75q-118 0 -184.5 75t-66.5 200zM121 663q0 31 21 52t52 21t52 -21t21 -52t-21 -51.5t-52 -20.5t-52 20.5t-21 51.5zM174 260q0 -191 122 -191q58 0 90 47.5t32 143.5 t-32 143.5t-90 47.5q-122 0 -122 -191zM324 663q0 31 21 52t52 21t52 -21t21 -52t-21 -51.5t-52 -20.5t-52 20.5t-21 51.5z" />
<glyph unicode="&#xf7;" horiz-adv-x="569" d="M50 316v100h469v-100h-469zM214 180q0 29 20 49t50 20t50.5 -20t20.5 -49t-20.5 -49.5t-50.5 -20.5t-50 20.5t-20 49.5zM214 552q0 29 20 49t50 20t50.5 -20t20.5 -49t-20.5 -49t-50.5 -20t-50 20t-20 49z" />
<glyph unicode="&#xf8;" horiz-adv-x="592" d="M39 -80l77 135q-71 74 -71 205q0 126 66.5 200.5t184.5 74.5q49 0 87 -13l45 78h123l-76 -134q71 -74 71 -206q0 -125 -66.5 -200t-183.5 -75q-46 0 -88 13l-45 -78h-124zM174 260q0 -50 9 -88l155 271q-19 8 -42 8q-122 0 -122 -191zM253 77q21 -8 43 -8q58 0 90 47.5 t32 143.5q0 54 -10 90z" />
<glyph unicode="&#xf9;" d="M71 156v364h125v-339q0 -96 88 -96q31 0 64 15.5t56 38.5v381h125v-520h-125v68q-81 -83 -178 -83q-69 0 -112 40.5t-43 130.5zM139 740h152l102 -157h-102z" />
<glyph unicode="&#xfa;" d="M71 156v364h125v-339q0 -96 88 -96q31 0 64 15.5t56 38.5v381h125v-520h-125v68q-81 -83 -178 -83q-69 0 -112 40.5t-43 130.5zM208 583l102 157h152l-153 -157h-101z" />
<glyph unicode="&#xfb;" d="M71 156v364h125v-339q0 -96 88 -96q31 0 64 15.5t56 38.5v381h125v-520h-125v68q-81 -83 -178 -83q-69 0 -112 40.5t-43 130.5zM120 583l118 157h123l118 -157h-102l-78 79l-78 -79h-101z" />
<glyph unicode="&#xfc;" d="M71 156v364h125v-339q0 -96 88 -96q31 0 64 15.5t56 38.5v381h125v-520h-125v68q-81 -83 -178 -83q-69 0 -112 40.5t-43 130.5zM125 663q0 31 21 52t52 21t52 -21t21 -52t-21 -51.5t-52 -20.5t-52 20.5t-21 51.5zM328 663q0 31 21 52t52 21t52 -21t21 -52t-21 -51.5 t-52 -20.5t-52 20.5t-21 51.5z" />
<glyph unicode="&#xfd;" horiz-adv-x="527" d="M15 520h137l72 -209l49 -162l50 162l71 209h118l-264 -728h-113l78 211zM171 583l102 157h152l-153 -157h-101z" />
<glyph unicode="&#xfe;" horiz-adv-x="595" d="M71 -208v952h125v-276q69 67 155 67q88 0 143 -73t55 -202q0 -126 -64.5 -200.5t-155.5 -74.5q-82 0 -133 61v-254h-125zM196 121q45 -43 103 -43q53 0 87.5 46.5t34.5 135.5q0 90 -31 136t-83 46q-64 0 -111 -45v-276z" />
<glyph unicode="&#xff;" horiz-adv-x="527" d="M15 520h137l72 -209l49 -162l50 162l71 209h118l-264 -728h-113l78 211zM98 663q0 31 21 52t52 21t52 -21t21 -52t-21 -51.5t-52 -20.5t-52 20.5t-21 51.5zM301 663q0 31 21 52t52 21t52 -21t21 -52t-21 -51.5t-52 -20.5t-52 20.5t-21 51.5z" />
<glyph unicode="&#x100;" horiz-adv-x="653" d="M10 0l244 700h136l253 -700h-140l-59 173h-254l-55 -173h-125zM154 782v86h332v-86h-332zM221 270h191l-49 144l-49 166l-47 -166z" />
<glyph unicode="&#x101;" horiz-adv-x="563" d="M41 125q0 73 60.5 121t190.5 48q21 0 75 -4v57q0 104 -86 104q-49 0 -73 -24t-26 -81h-125q3 93 62.5 141t161.5 48q31 0 59 -4.5t56.5 -16.5t49 -31t33.5 -50t13 -71v-362h-125v58q-76 -73 -168 -73q-75 0 -116.5 37.5t-41.5 102.5zM125 612v86h308v-86h-308zM166 142 q0 -68 87 -68q29 0 60.5 15.5t53.5 38.5v92q-37 3 -68 3q-133 0 -133 -81z" />
<glyph unicode="&#x102;" horiz-adv-x="653" d="M10 0l244 700h136l253 -700h-140l-59 173h-254l-55 -173h-125zM156 894h86q0 -27 19.5 -44t58.5 -17t58.5 17t19.5 44h86q0 -74 -47 -113.5t-117 -39.5t-117 39.5t-47 113.5zM221 270h191l-49 144l-49 166l-47 -166z" />
<glyph unicode="&#x103;" horiz-adv-x="563" d="M41 125q0 73 60.5 121t190.5 48q21 0 75 -4v57q0 104 -86 104q-49 0 -73 -24t-26 -81h-125q3 93 62.5 141t161.5 48q31 0 59 -4.5t56.5 -16.5t49 -31t33.5 -50t13 -71v-362h-125v58q-76 -73 -168 -73q-75 0 -116.5 37.5t-41.5 102.5zM125 740h85q0 -32 17.5 -54.5 t51.5 -22.5t51.5 22.5t17.5 54.5h85q0 -83 -45 -125t-109 -42t-109 42t-45 125zM166 142q0 -68 87 -68q29 0 60.5 15.5t53.5 38.5v92q-37 3 -68 3q-133 0 -133 -81z" />
<glyph unicode="&#x104;" horiz-adv-x="653" d="M10 0l244 700h136l253 -700h-1q-116 -60 -116 -129q0 -21 14 -33t32 -12q32 0 70 20v-70q-42 -24 -104 -24q-52 0 -82 29t-30 72q0 84 109 147h-32l-59 173h-254l-55 -173h-125zM221 270h191l-49 144l-49 166l-47 -166z" />
<glyph unicode="&#x105;" horiz-adv-x="563" d="M41 125q0 73 60.5 121t190.5 48q21 0 75 -4v57q0 104 -86 104q-49 0 -73 -24t-26 -81h-125q3 93 62.5 141t161.5 48q31 0 59 -4.5t56.5 -16.5t49 -31t33.5 -50t13 -71v-362h-1q-116 -60 -116 -129q0 -21 14 -33t32 -12q32 0 70 20v-70q-42 -24 -104 -24q-52 0 -82 29 t-30 72q0 84 109 147h-17v58q-76 -73 -168 -73q-75 0 -116.5 37.5t-41.5 102.5zM166 142q0 -68 87 -68q29 0 60.5 15.5t53.5 38.5v92q-37 3 -68 3q-133 0 -133 -81z" />
<glyph unicode="&#x106;" horiz-adv-x="672" d="M45 350q0 165 84 265t222 100q120 0 194 -63.5t86 -189.5h-139q-18 154 -141 154q-76 0 -121.5 -69.5t-45.5 -196.5q0 -129 43 -197.5t124 -68.5q124 0 141 154h139q-12 -126 -86 -189.5t-194 -63.5q-149 0 -227.5 97.5t-78.5 267.5zM215 751l132 143h162l-187 -143h-107 z" />
<glyph unicode="&#x107;" horiz-adv-x="548" d="M45 260q0 126 64 200.5t177 74.5q100 0 159 -51t67 -142h-126q-7 59 -30.5 84t-69.5 25q-52 0 -82 -48t-30 -143q0 -191 112 -191q43 0 67 24.5t32 79.5h126q-10 -88 -68.5 -138t-156.5 -50q-119 0 -180 73.5t-61 201.5zM224 583l102 157h152l-153 -157h-101z" />
<glyph unicode="&#x108;" horiz-adv-x="672" d="M45 350q0 165 84 265t222 100q120 0 194 -63.5t86 -189.5h-139q-18 154 -141 154q-76 0 -121.5 -69.5t-45.5 -196.5q0 -129 43 -197.5t124 -68.5q124 0 141 154h139q-12 -126 -86 -189.5t-194 -63.5q-149 0 -227.5 97.5t-78.5 267.5zM128 751l149 143h121l149 -143h-116 l-94 64l-93 -64h-116z" />
<glyph unicode="&#x109;" horiz-adv-x="548" d="M45 260q0 126 64 200.5t177 74.5q100 0 159 -51t67 -142h-126q-7 59 -30.5 84t-69.5 25q-52 0 -82 -48t-30 -143q0 -191 112 -191q43 0 67 24.5t32 79.5h126q-10 -88 -68.5 -138t-156.5 -50q-119 0 -180 73.5t-61 201.5zM99 583l118 157h123l118 -157h-102l-78 79 l-78 -79h-101z" />
<glyph unicode="&#x10a;" horiz-adv-x="672" d="M45 350q0 165 84 265t222 100q120 0 194 -63.5t86 -189.5h-139q-18 154 -141 154q-76 0 -121.5 -69.5t-45.5 -196.5q0 -129 43 -197.5t124 -68.5q124 0 141 154h139q-12 -126 -86 -189.5t-194 -63.5q-149 0 -227.5 97.5t-78.5 267.5zM261 829q0 32 21.5 52.5t54.5 20.5 t54.5 -20.5t21.5 -52.5q0 -31 -22 -52t-54 -21t-54 21t-22 52z" />
<glyph unicode="&#x10b;" horiz-adv-x="548" d="M45 260q0 126 64 200.5t177 74.5q100 0 159 -51t67 -142h-126q-7 59 -30.5 84t-69.5 25q-52 0 -82 -48t-30 -143q0 -191 112 -191q43 0 67 24.5t32 79.5h126q-10 -88 -68.5 -138t-156.5 -50q-119 0 -180 73.5t-61 201.5zM202 663q0 32 21.5 53.5t54.5 21.5q32 0 54 -21.5 t22 -53.5t-22 -53.5t-54 -21.5q-33 0 -54.5 21.5t-21.5 53.5z" />
<glyph unicode="&#x10c;" horiz-adv-x="672" d="M45 350q0 165 84 265t222 100q120 0 194 -63.5t86 -189.5h-139q-18 154 -141 154q-76 0 -121.5 -69.5t-45.5 -196.5q0 -129 43 -197.5t124 -68.5q124 0 141 154h139q-12 -126 -86 -189.5t-194 -63.5q-149 0 -227.5 97.5t-78.5 267.5zM128 894h116l93 -64l94 64h116 l-149 -143h-121z" />
<glyph unicode="&#x10d;" horiz-adv-x="548" d="M45 260q0 126 64 200.5t177 74.5q100 0 159 -51t67 -142h-126q-7 59 -30.5 84t-69.5 25q-52 0 -82 -48t-30 -143q0 -191 112 -191q43 0 67 24.5t32 79.5h126q-10 -88 -68.5 -138t-156.5 -50q-119 0 -180 73.5t-61 201.5zM99 740h101l78 -78l78 78h102l-118 -157h-123z " />
<glyph unicode="&#x10e;" horiz-adv-x="712" d="M81 0v700h228q162 0 260 -93.5t98 -256.5t-98 -256.5t-260 -93.5h-228zM94 894h116l93 -64l94 64h116l-149 -143h-121zM212 99h97q100 0 159.5 63t59.5 188t-59.5 188t-159.5 63h-97v-502z" />
<glyph unicode="&#x10f;" horiz-adv-x="670" d="M45 260q0 126 64.5 200.5t156.5 74.5q81 0 133 -61v270h125v-744h-125v53q-68 -68 -156 -68t-143 73.5t-55 201.5zM174 260q0 -90 31 -136t83 -46q63 0 111 46v276q-44 42 -103 42q-53 0 -87.5 -46.5t-34.5 -135.5zM579 574v229h110l-24 -229h-86z" />
<glyph unicode="&#x110;" horiz-adv-x="712" d="M-20 298v100h101v302h228q162 0 260 -93.5t98 -256.5t-98 -256.5t-260 -93.5h-228v298h-101zM212 99h97q100 0 159.5 63t59.5 188t-59.5 188t-159.5 63h-97v-203h145v-100h-145v-199z" />
<glyph unicode="&#x111;" horiz-adv-x="595" d="M45 260q0 126 64.5 200.5t156.5 74.5q81 0 133 -61v120h-113v86h113v64h125v-64h70v-86h-70v-594h-125v53q-68 -68 -156 -68t-143 73.5t-55 201.5zM174 260q0 -90 31 -136t83 -46q63 0 111 46v276q-44 42 -103 42q-53 0 -87.5 -46.5t-34.5 -135.5z" />
<glyph unicode="&#x112;" horiz-adv-x="561" d="M81 0v700h425v-99h-294v-183h274v-99h-274v-220h294v-99h-425zM127 782v86h332v-86h-332z" />
<glyph unicode="&#x113;" horiz-adv-x="557" d="M45 260q0 124 64.5 199.5t171.5 75.5q115 0 177 -75.5t52 -219.5h-341q5 -171 113 -171q80 0 96 82h126q-9 -75 -69 -120.5t-153 -45.5q-118 0 -177.5 73.5t-59.5 201.5zM122 612v86h308v-86h-308zM172 315h212q-3 138 -103 138q-94 0 -109 -138z" />
<glyph unicode="&#x114;" horiz-adv-x="561" d="M81 0v700h425v-99h-294v-183h274v-99h-274v-220h294v-99h-425zM129 894h86q0 -27 19.5 -44t58.5 -17t58.5 17t19.5 44h86q0 -74 -47 -113.5t-117 -39.5t-117 39.5t-47 113.5z" />
<glyph unicode="&#x115;" horiz-adv-x="557" d="M45 260q0 124 64.5 199.5t171.5 75.5q115 0 177 -75.5t52 -219.5h-341q5 -171 113 -171q80 0 96 82h126q-9 -75 -69 -120.5t-153 -45.5q-118 0 -177.5 73.5t-59.5 201.5zM125 740h85q0 -32 17.5 -54.5t51.5 -22.5t51.5 22.5t17.5 54.5h85q0 -83 -45 -125t-109 -42 t-109 42t-45 125zM172 315h212q-3 138 -103 138q-94 0 -109 -138z" />
<glyph unicode="&#x116;" horiz-adv-x="561" d="M81 0v700h425v-99h-294v-183h274v-99h-274v-220h294v-99h-425zM217 829q0 32 21.5 52.5t54.5 20.5t54.5 -20.5t21.5 -52.5q0 -31 -22 -52t-54 -21t-54 21t-22 52z" />
<glyph unicode="&#x117;" horiz-adv-x="557" d="M45 260q0 124 64.5 199.5t171.5 75.5q115 0 177 -75.5t52 -219.5h-341q5 -171 113 -171q80 0 96 82h126q-9 -75 -69 -120.5t-153 -45.5q-118 0 -177.5 73.5t-59.5 201.5zM172 315h212q-3 138 -103 138q-94 0 -109 -138zM198 663q0 32 21.5 53.5t54.5 21.5q32 0 54 -21.5 t22 -53.5t-22 -53.5t-54 -21.5q-33 0 -54.5 21.5t-21.5 53.5z" />
<glyph unicode="&#x118;" horiz-adv-x="561" d="M81 0v700h425v-99h-294v-183h274v-99h-274v-220h294v-99h-1q-116 -60 -116 -129q0 -21 14 -33t32 -12q32 0 70 20v-70q-42 -24 -104 -24q-52 0 -82 29t-30 72q0 84 109 147h-317z" />
<glyph unicode="&#x119;" horiz-adv-x="557" d="M45 260q0 124 64.5 199.5t171.5 75.5q115 0 177 -75.5t52 -219.5h-341q5 -171 113 -171q80 0 96 82h126q-4 -40 -27 -76q-37 -66 -50 -90.5t-26 -58t-13 -55.5q0 -21 13.5 -33t31.5 -12q33 0 71 20v-70q-42 -24 -105 -24q-52 0 -82 29t-30 72q0 56 66 140q-35 -8 -71 -8 q-118 0 -177.5 73.5t-59.5 201.5zM172 315h212q-3 138 -103 138q-94 0 -109 -138z" />
<glyph unicode="&#x11a;" horiz-adv-x="561" d="M81 0v700h425v-99h-294v-183h274v-99h-274v-220h294v-99h-425zM84 894h116l93 -64l94 64h116l-149 -143h-121z" />
<glyph unicode="&#x11b;" horiz-adv-x="557" d="M45 260q0 124 64.5 199.5t171.5 75.5q115 0 177 -75.5t52 -219.5h-341q5 -171 113 -171q80 0 96 82h126q-9 -75 -69 -120.5t-153 -45.5q-118 0 -177.5 73.5t-59.5 201.5zM100 740h101l78 -78l78 78h102l-118 -157h-123zM172 315h212q-3 138 -103 138q-94 0 -109 -138z " />
<glyph unicode="&#x11c;" horiz-adv-x="687" d="M45 350q0 166 84 265.5t225 99.5q115 0 186.5 -59.5t85.5 -174.5h-139q-18 135 -133 135q-78 0 -124 -69.5t-46 -196.5q0 -129 48 -198t126 -69q38 0 77 17t66 42v118h-147v94h273v-354h-126v66q-31 -35 -83 -58t-103 -23q-128 0 -199 97t-71 268zM131 751l149 143h121 l149 -143h-116l-94 64l-93 -64h-116z" />
<glyph unicode="&#x11d;" horiz-adv-x="591" d="M45 264q0 126 64.5 198.5t156.5 72.5q81 0 133 -61v46h125v-519q0 -110 -70 -167t-167 -57q-107 0 -167 44t-62 132h125q2 -50 28 -71t76 -21q112 0 112 126v73q-68 -68 -156 -68t-143 72t-55 200zM125 583l118 157h123l118 -157h-102l-78 79l-78 -79h-101zM174 264 q0 -89 31 -134t83 -45q63 0 111 46v269q-44 42 -103 42q-54 0 -88 -45t-34 -133z" />
<glyph unicode="&#x11e;" horiz-adv-x="687" d="M45 350q0 166 84 265.5t225 99.5q115 0 186.5 -59.5t85.5 -174.5h-139q-18 135 -133 135q-78 0 -124 -69.5t-46 -196.5q0 -129 48 -198t126 -69q38 0 77 17t66 42v118h-147v94h273v-354h-126v66q-31 -35 -83 -58t-103 -23q-128 0 -199 97t-71 268zM176 894h86 q0 -27 19.5 -44t58.5 -17t58.5 17t19.5 44h86q0 -74 -47 -113.5t-117 -39.5t-117 39.5t-47 113.5z" />
<glyph unicode="&#x11f;" horiz-adv-x="591" d="M45 264q0 126 64.5 198.5t156.5 72.5q81 0 133 -61v46h125v-519q0 -110 -70 -167t-167 -57q-107 0 -167 44t-62 132h125q2 -50 28 -71t76 -21q112 0 112 126v73q-68 -68 -156 -68t-143 72t-55 200zM150 740h85q0 -32 17.5 -54.5t51.5 -22.5t51.5 22.5t17.5 54.5h85 q0 -83 -45 -125t-109 -42t-109 42t-45 125zM174 264q0 -89 31 -134t83 -45q63 0 111 46v269q-44 42 -103 42q-54 0 -88 -45t-34 -133z" />
<glyph unicode="&#x120;" horiz-adv-x="687" d="M45 350q0 166 84 265.5t225 99.5q115 0 186.5 -59.5t85.5 -174.5h-139q-18 135 -133 135q-78 0 -124 -69.5t-46 -196.5q0 -129 48 -198t126 -69q38 0 77 17t66 42v118h-147v94h273v-354h-126v66q-31 -35 -83 -58t-103 -23q-128 0 -199 97t-71 268zM259 829 q0 32 21.5 52.5t54.5 20.5t54.5 -20.5t21.5 -52.5q0 -31 -22 -52t-54 -21t-54 21t-22 52z" />
<glyph unicode="&#x121;" horiz-adv-x="591" d="M45 264q0 126 64.5 198.5t156.5 72.5q81 0 133 -61v46h125v-519q0 -110 -70 -167t-167 -57q-107 0 -167 44t-62 132h125q2 -50 28 -71t76 -21q112 0 112 126v73q-68 -68 -156 -68t-143 72t-55 200zM174 264q0 -89 31 -134t83 -45q63 0 111 46v269q-44 42 -103 42 q-54 0 -88 -45t-34 -133zM208 663q0 32 21.5 53.5t54.5 21.5q32 0 54 -21.5t22 -53.5t-22 -53.5t-54 -21.5q-33 0 -54.5 21.5t-21.5 53.5z" />
<glyph unicode="&#x122;" horiz-adv-x="687" d="M45 350q0 166 84 265.5t225 99.5q115 0 186.5 -59.5t85.5 -174.5h-139q-18 135 -133 135q-78 0 -124 -69.5t-46 -196.5q0 -129 48 -198t126 -69q38 0 77 17t66 42v118h-147v94h273v-354h-126v66q-31 -35 -83 -58t-103 -23q-128 0 -199 97t-71 268zM279 -248l20 189h114 l-48 -189h-86z" />
<glyph unicode="&#x123;" horiz-adv-x="591" d="M45 264q0 126 64.5 198.5t156.5 72.5q81 0 133 -61v46h125v-519q0 -110 -70 -167t-167 -57q-107 0 -167 44t-62 132h125q2 -50 28 -71t76 -21q112 0 112 126v73q-68 -68 -156 -68t-143 72t-55 200zM174 264q0 -89 31 -134t83 -45q63 0 111 46v269q-44 42 -103 42 q-54 0 -88 -45t-34 -133zM227 582l48 189h86l-20 -189h-114z" />
<glyph unicode="&#x124;" horiz-adv-x="736" d="M81 0v700h131v-282h313v282h130v-700h-130v319h-313v-319h-131zM158 751l149 143h121l149 -143h-116l-94 64l-93 -64h-116z" />
<glyph unicode="&#x125;" horiz-adv-x="605" d="M-75 781l149 143h121l149 -143h-116l-94 64l-93 -64h-116zM71 0v744h125v-292q80 83 181 83q69 0 113 -40.5t44 -130.5v-364h-125v340q0 95 -90 95q-31 0 -65.5 -15.5t-57.5 -38.5v-381h-125z" />
<glyph unicode="&#x126;" horiz-adv-x="736" d="M5 499v100h76v101h131v-101h313v101h130v-101h76v-100h-76v-499h-130v296h-313v-296h-131v499h-76zM212 396h313v103h-313v-103z" />
<glyph unicode="&#x127;" horiz-adv-x="605" d="M0 594v86h71v64h125v-64h112v-86h-112v-142q80 83 181 83q69 0 113 -40.5t44 -130.5v-364h-125v340q0 95 -90 95q-31 0 -65.5 -15.5t-57.5 -38.5v-381h-125v594h-71z" />
<glyph unicode="&#x128;" horiz-adv-x="293" d="M-47 794q19 50 50.5 76.5t67.5 26.5q32 0 85 -22t66 -22q33 0 52 41l67 -32q-18 -50 -49.5 -76.5t-67.5 -26.5q-31 0 -84.5 22t-67.5 22q-32 0 -52 -41zM81 0v700h131v-700h-131z" />
<glyph unicode="&#x129;" horiz-adv-x="267" d="M-50 622q19 50 50.5 76.5t65.5 26.5q31 0 77.5 -22t59.5 -22q29 0 48 41l67 -32q-18 -49 -49.5 -76t-65.5 -27q-31 0 -77 22t-60 22q-28 0 -49 -41zM71 0v520h125v-520h-125z" />
<glyph unicode="&#x12a;" horiz-adv-x="293" d="M15 782v86h262v-86h-262zM81 0v700h131v-700h-131z" />
<glyph unicode="&#x12b;" horiz-adv-x="267" d="M15 612v86h237v-86h-237zM71 0v520h125v-520h-125z" />
<glyph unicode="&#x12c;" horiz-adv-x="293" d="M-18 894h86q0 -27 19.5 -44t58.5 -17t58.5 17t19.5 44h86q0 -74 -47 -113.5t-117 -39.5t-117 39.5t-47 113.5zM81 0v700h131v-700h-131z" />
<glyph unicode="&#x12d;" horiz-adv-x="267" d="M-20 740h85q0 -32 17.5 -54.5t51.5 -22.5t51.5 22.5t17.5 54.5h85q0 -83 -45 -125t-109 -42t-109 42t-45 125zM71 0v520h125v-520h-125z" />
<glyph unicode="&#x12e;" horiz-adv-x="293" d="M-4 -147q0 84 109 147h-24v700h131v-700q-116 -60 -116 -129q0 -21 14 -33t32 -12q32 0 70 20v-70q-42 -24 -104 -24q-52 0 -82 29t-30 72z" />
<glyph unicode="&#x12f;" horiz-adv-x="267" d="M-20 -147q0 84 109 147h-18v520h125v-520q-116 -60 -116 -129q0 -21 14 -33t32 -12q32 0 70 20v-70q-42 -24 -104 -24q-52 0 -82 29t-30 72zM58 663q0 32 21.5 53.5t53.5 21.5q33 0 54.5 -21.5t21.5 -53.5t-21.5 -53.5t-54.5 -21.5q-32 0 -53.5 21.5t-21.5 53.5z" />
<glyph unicode="&#x130;" horiz-adv-x="293" d="M69 829q0 32 21.5 52.5t54.5 20.5t54.5 -20.5t21.5 -52.5q0 -31 -22 -52t-54 -21t-54 21t-22 52zM81 0v700h131v-700h-131z" />
<glyph unicode="&#x131;" horiz-adv-x="267" d="M71 0v520h125v-520h-125z" />
<glyph unicode="&#x132;" horiz-adv-x="876" d="M81 0v700h131v-700h-131zM322 233h133q3 -82 30 -116.5t80 -34.5q109 0 109 116v502h131v-482q0 -116 -70 -174.5t-170 -58.5q-238 0 -243 248z" />
<glyph unicode="&#x133;" horiz-adv-x="534" d="M58 663q0 32 21.5 53.5t53.5 21.5q33 0 54.5 -21.5t21.5 -53.5t-21.5 -53.5t-54.5 -21.5q-32 0 -53.5 21.5t-21.5 53.5zM71 0v520h125v-520h-125zM325 663q0 32 21.5 53.5t53.5 21.5q33 0 54.5 -21.5t21.5 -53.5t-21.5 -53.5t-54.5 -21.5q-32 0 -53.5 21.5t-21.5 53.5z M338 -208v728h125v-728h-125z" />
<glyph unicode="&#x134;" horiz-adv-x="584" d="M30 233h133q3 -82 30 -116.5t80 -34.5q109 0 109 116v502h131v-482q0 -116 -70 -174.5t-170 -58.5q-238 0 -243 248zM238 751l149 143h121l149 -143h-116l-94 64l-93 -64h-116z" />
<glyph unicode="&#x135;" horiz-adv-x="267" d="M-45 583l118 157h123l118 -157h-102l-78 79l-78 -79h-101zM71 -208v728h125v-728h-125z" />
<glyph unicode="&#x136;" horiz-adv-x="638" d="M81 0v700h131v-323l235 323h131l-241 -321l280 -379h-157l-248 352v-352h-131zM226 -248l20 189h114l-48 -189h-86z" />
<glyph unicode="&#x137;" horiz-adv-x="540" d="M71 0v744h125v-458l189 234h127l-197 -230l216 -290h-148l-187 262v-262h-125zM180 -248l20 189h114l-48 -189h-86z" />
<glyph unicode="&#x138;" horiz-adv-x="540" d="M71 0v520h125v-234l189 234h127l-197 -230l216 -290h-148l-187 262v-262h-125z" />
<glyph unicode="&#x139;" horiz-adv-x="522" d="M45 751l132 143h162l-187 -143h-107zM81 0v700h131v-601h264v-99h-395z" />
<glyph unicode="&#x13a;" horiz-adv-x="267" d="M53 781l132 143h162l-187 -143h-107zM71 0v744h125v-744h-125z" />
<glyph unicode="&#x13b;" horiz-adv-x="522" d="M81 0v700h131v-601h264v-99h-395zM196 -248l20 189h114l-48 -189h-86z" />
<glyph unicode="&#x13c;" horiz-adv-x="267" d="M60 -248l20 189h114l-48 -189h-86zM71 0v744h125v-744h-125z" />
<glyph unicode="&#x13d;" horiz-adv-x="522" d="M81 0v700h131v-601h264v-99h-395zM267 574v229h110l-24 -229h-86z" />
<glyph unicode="&#x13e;" horiz-adv-x="342" d="M71 0v744h125v-744h-125zM251 574v229h110l-24 -229h-86z" />
<glyph unicode="&#x13f;" horiz-adv-x="522" d="M81 0v700h131v-601h264v-99h-395zM279 365q0 34 22 56t56 22t56 -22t22 -56t-22 -56t-56 -22t-56 22t-22 56z" />
<glyph unicode="&#x140;" horiz-adv-x="387" d="M71 0v744h125v-744h-125zM251 365q0 34 22 56t56 22t56 -22t22 -56t-22 -56t-56 -22t-56 22t-22 56z" />
<glyph unicode="&#x141;" horiz-adv-x="522" d="M-5 203v108l86 50v339h131v-262l137 80v-109l-137 -80v-230h264v-99h-395v253z" />
<glyph unicode="&#x142;" horiz-adv-x="294" d="M4 246v95l80 47v356h125v-284l80 47v-95l-80 -47v-365h-125v293z" />
<glyph unicode="&#x143;" horiz-adv-x="722" d="M81 0v700h126l317 -505l-2 158v347h119v-700h-126l-318 505l3 -158v-347h-119zM248 751l132 143h162l-187 -143h-107z" />
<glyph unicode="&#x144;" horiz-adv-x="605" d="M71 0v520h125v-68q80 83 181 83q69 0 113 -40.5t44 -130.5v-364h-125v340q0 95 -90 95q-31 0 -65.5 -15.5t-57.5 -38.5v-381h-125zM185 583l102 157h152l-153 -157h-101z" />
<glyph unicode="&#x145;" horiz-adv-x="722" d="M81 0v700h126l317 -505l-2 158v347h119v-700h-126l-318 505l3 -158v-347h-119zM288 -248l20 189h114l-48 -189h-86z" />
<glyph unicode="&#x146;" horiz-adv-x="605" d="M71 0v520h125v-68q80 83 181 83q69 0 113 -40.5t44 -130.5v-364h-125v340q0 95 -90 95q-31 0 -65.5 -15.5t-57.5 -38.5v-381h-125zM225 -248l20 189h114l-48 -189h-86z" />
<glyph unicode="&#x147;" horiz-adv-x="722" d="M81 0v700h126l317 -505l-2 158v347h119v-700h-126l-318 505l3 -158v-347h-119zM151 894h116l93 -64l94 64h116l-149 -143h-121z" />
<glyph unicode="&#x148;" horiz-adv-x="605" d="M71 0v520h125v-68q80 83 181 83q69 0 113 -40.5t44 -130.5v-364h-125v340q0 95 -90 95q-31 0 -65.5 -15.5t-57.5 -38.5v-381h-125zM113 740h101l78 -78l78 78h102l-118 -157h-123z" />
<glyph unicode="&#x14a;" horiz-adv-x="722" d="M81 0v700h126l317 -505l-2 158v347h119v-700q0 -62 -19 -107.5t-52.5 -69.5t-72 -35t-84.5 -11q-49 0 -85 18v91q42 -12 85 -12q53 0 81 25t28 91l-325 515l3 -158v-347h-119z" />
<glyph unicode="&#x14b;" horiz-adv-x="605" d="M71 0v520h125v-68q80 83 181 83q69 0 113 -40.5t44 -130.5v-572h-125v548q0 95 -90 95q-31 0 -65.5 -15.5t-57.5 -38.5v-381h-125z" />
<glyph unicode="&#x14c;" horiz-adv-x="742" d="M45 350q0 166 88 265.5t238 99.5q149 0 237 -99.5t88 -265.5t-88 -265.5t-237 -99.5q-150 0 -238 99.5t-88 265.5zM184 350q0 -128 50 -197t137 -69t136.5 69t49.5 197t-49.5 197t-136.5 69t-137 -69t-50 -197zM204 782v86h332v-86h-332z" />
<glyph unicode="&#x14d;" horiz-adv-x="592" d="M45 260q0 126 66.5 200.5t184.5 74.5q117 0 183.5 -74.5t66.5 -200.5q0 -125 -66.5 -200t-183.5 -75q-118 0 -184.5 75t-66.5 200zM141 612v86h308v-86h-308zM174 260q0 -191 122 -191q58 0 90 47.5t32 143.5t-32 143.5t-90 47.5q-122 0 -122 -191z" />
<glyph unicode="&#x14e;" horiz-adv-x="742" d="M45 350q0 166 88 265.5t238 99.5q149 0 237 -99.5t88 -265.5t-88 -265.5t-237 -99.5q-150 0 -238 99.5t-88 265.5zM184 350q0 -128 50 -197t137 -69t136.5 69t49.5 197t-49.5 197t-136.5 69t-137 -69t-50 -197zM206 894h86q0 -27 19.5 -44t58.5 -17t58.5 17t19.5 44h86 q0 -74 -47 -113.5t-117 -39.5t-117 39.5t-47 113.5z" />
<glyph unicode="&#x14f;" horiz-adv-x="592" d="M45 260q0 126 66.5 200.5t184.5 74.5q117 0 183.5 -74.5t66.5 -200.5q0 -125 -66.5 -200t-183.5 -75q-118 0 -184.5 75t-66.5 200zM141 740h85q0 -32 17.5 -54.5t51.5 -22.5t51.5 22.5t17.5 54.5h85q0 -83 -45 -125t-109 -42t-109 42t-45 125zM174 260q0 -191 122 -191 q58 0 90 47.5t32 143.5t-32 143.5t-90 47.5q-122 0 -122 -191z" />
<glyph unicode="&#x150;" horiz-adv-x="742" d="M45 350q0 166 88 265.5t238 99.5q149 0 237 -99.5t88 -265.5t-88 -265.5t-237 -99.5q-150 0 -238 99.5t-88 265.5zM177 751l107 143h151l-158 -143h-100zM184 350q0 -128 50 -197t137 -69t136.5 69t49.5 197t-49.5 197t-136.5 69t-137 -69t-50 -197zM376 751l108 143h150 l-158 -143h-100z" />
<glyph unicode="&#x151;" horiz-adv-x="592" d="M45 260q0 126 66.5 200.5t184.5 74.5q117 0 183.5 -74.5t66.5 -200.5q0 -125 -66.5 -200t-183.5 -75q-118 0 -184.5 75t-66.5 200zM129 583l82 157h144l-130 -157h-96zM174 260q0 -191 122 -191q58 0 90 47.5t32 143.5t-32 143.5t-90 47.5q-122 0 -122 -191zM314 583 l82 157h144l-130 -157h-96z" />
<glyph unicode="&#x152;" horiz-adv-x="972" d="M59 350q0 163 98 256.5t260 93.5h501v-99h-295v-183h275v-99h-275v-220h295v-99h-501q-162 0 -260 93.5t-98 256.5zM198 350q0 -125 59.5 -188t159.5 -63h75v502h-75q-100 0 -159.5 -63t-59.5 -188z" />
<glyph unicode="&#x153;" horiz-adv-x="930" d="M45 260q0 126 66.5 200.5t184.5 74.5q123 0 184 -92q29 44 75 68t98 24q116 0 178 -75.5t52 -219.5h-341q5 -171 112 -171q82 0 96 82h126q-9 -76 -68.5 -121t-153.5 -45q-121 0 -177 88q-60 -88 -181 -88q-118 0 -184.5 75t-66.5 200zM174 260q0 -191 122 -191 q58 0 90 47.5t32 143.5t-32 143.5t-90 47.5q-122 0 -122 -191zM545 315h211q-1 138 -103 138q-93 0 -108 -138z" />
<glyph unicode="&#x154;" horiz-adv-x="625" d="M81 0v700h228q108 0 183.5 -54.5t75.5 -164.5q0 -80 -41.5 -130.5t-109.5 -72.5l187 -278h-152l-162 262h-78v-262h-131zM166 751l132 143h162l-187 -143h-107zM212 356h97q56 0 91 30.5t35 94.5q0 63 -35 92.5t-91 29.5h-97v-247z" />
<glyph unicode="&#x155;" horiz-adv-x="429" d="M71 0v520h125v-93q28 51 67 79.5t78 28.5q36 0 63 -22v-107q-38 16 -72 16q-41 0 -78.5 -23t-57.5 -56v-343h-125zM110 583l102 157h152l-153 -157h-101z" />
<glyph unicode="&#x156;" horiz-adv-x="625" d="M81 0v700h228q108 0 183.5 -54.5t75.5 -164.5q0 -80 -41.5 -130.5t-109.5 -72.5l187 -278h-152l-162 262h-78v-262h-131zM212 356h97q56 0 91 30.5t35 94.5q0 63 -35 92.5t-91 29.5h-97v-247zM235 -248l20 189h114l-48 -189h-86z" />
<glyph unicode="&#x157;" horiz-adv-x="429" d="M60 -248l20 189h114l-48 -189h-86zM71 0v520h125v-93q28 51 67 79.5t78 28.5q36 0 63 -22v-107q-38 16 -72 16q-41 0 -78.5 -23t-57.5 -56v-343h-125z" />
<glyph unicode="&#x158;" horiz-adv-x="625" d="M77 894h116l93 -64l94 64h116l-149 -143h-121zM81 0v700h228q108 0 183.5 -54.5t75.5 -164.5q0 -80 -41.5 -130.5t-109.5 -72.5l187 -278h-152l-162 262h-78v-262h-131zM212 356h97q56 0 91 30.5t35 94.5q0 63 -35 92.5t-91 29.5h-97v-247z" />
<glyph unicode="&#x159;" horiz-adv-x="429" d="M43 740h101l78 -78l78 78h102l-118 -157h-123zM71 0v520h125v-93q28 51 67 79.5t78 28.5q36 0 63 -22v-107q-38 16 -72 16q-41 0 -78.5 -23t-57.5 -56v-343h-125z" />
<glyph unicode="&#x15a;" horiz-adv-x="620" d="M45 211h136q9 -129 138 -129q56 0 92.5 27.5t36.5 78.5q0 38 -25 62t-48 31.5t-77 18.5q-11 3 -17 4q-29 6 -46 10.5t-44.5 13.5t-44 18.5t-36.5 25t-31 34t-18.5 45t-7.5 58.5q0 93 69.5 149.5t178.5 56.5q251 0 265 -217h-135q-10 120 -130 120q-54 0 -87.5 -24 t-33.5 -72q0 -38 24.5 -62t48.5 -32t78 -19q8 -2 13 -3q28 -6 41 -9t39 -10t40 -14t34.5 -18t31.5 -24.5t23 -31.5t17 -41.5t5 -51.5q0 -96 -75 -158.5t-181 -62.5q-127 0 -198 56.5t-76 169.5zM177 751l132 143h162l-187 -143h-107z" />
<glyph unicode="&#x15b;" horiz-adv-x="515" d="M41 153h123q5 -87 103 -87q42 0 68 18.5t26 55.5q0 24 -19.5 39.5t-37 20t-59.5 12.5q-6 1 -9 2q-34 6 -54.5 11t-50 17t-46 27.5t-29 41.5t-12.5 61q0 77 57.5 120t148.5 43q206 0 211 -153h-123q-3 38 -24.5 55t-66.5 17q-40 0 -65 -16t-25 -48q0 -15 6.5 -26.5t13 -18 t25.5 -13t28.5 -8.5t36.5 -7q7 -1 10 -2q27 -5 39 -7.5t37.5 -9t38.5 -13t31.5 -18.5t27.5 -26.5t16 -35.5t7 -46q0 -77 -59.5 -125.5t-150.5 -48.5q-218 0 -223 168zM140 583l102 157h152l-153 -157h-101z" />
<glyph unicode="&#x15c;" horiz-adv-x="620" d="M45 211h136q9 -129 138 -129q56 0 92.5 27.5t36.5 78.5q0 38 -25 62t-48 31.5t-77 18.5q-11 3 -17 4q-29 6 -46 10.5t-44.5 13.5t-44 18.5t-36.5 25t-31 34t-18.5 45t-7.5 58.5q0 93 69.5 149.5t178.5 56.5q251 0 265 -217h-135q-10 120 -130 120q-54 0 -87.5 -24 t-33.5 -72q0 -38 24.5 -62t48.5 -32t78 -19q8 -2 13 -3q28 -6 41 -9t39 -10t40 -14t34.5 -18t31.5 -24.5t23 -31.5t17 -41.5t5 -51.5q0 -96 -75 -158.5t-181 -62.5q-127 0 -198 56.5t-76 169.5zM100 751l149 143h121l149 -143h-116l-94 64l-93 -64h-116z" />
<glyph unicode="&#x15d;" horiz-adv-x="515" d="M41 153h123q5 -87 103 -87q42 0 68 18.5t26 55.5q0 24 -19.5 39.5t-37 20t-59.5 12.5q-6 1 -9 2q-34 6 -54.5 11t-50 17t-46 27.5t-29 41.5t-12.5 61q0 77 57.5 120t148.5 43q206 0 211 -153h-123q-3 38 -24.5 55t-66.5 17q-40 0 -65 -16t-25 -48q0 -15 6.5 -26.5t13 -18 t25.5 -13t28.5 -8.5t36.5 -7q7 -1 10 -2q27 -5 39 -7.5t37.5 -9t38.5 -13t31.5 -18.5t27.5 -26.5t16 -35.5t7 -46q0 -77 -59.5 -125.5t-150.5 -48.5q-218 0 -223 168zM73 583l118 157h123l118 -157h-102l-78 79l-78 -79h-101z" />
<glyph unicode="&#x15e;" horiz-adv-x="620" d="M45 211h136q9 -129 138 -129q56 0 92.5 27.5t36.5 78.5q0 38 -25 62t-48 31.5t-77 18.5q-11 3 -17 4q-29 6 -46 10.5t-44.5 13.5t-44 18.5t-36.5 25t-31 34t-18.5 45t-7.5 58.5q0 93 69.5 149.5t178.5 56.5q251 0 265 -217h-135q-10 120 -130 120q-54 0 -87.5 -24 t-33.5 -72q0 -38 24.5 -62t48.5 -32t78 -19q8 -2 13 -3q28 -6 41 -9t39 -10t40 -14t34.5 -18t31.5 -24.5t23 -31.5t17 -41.5t5 -51.5q0 -90 -67.5 -151.5t-166.5 -68.5l-37 -50q45 2 78 -19t33 -65q0 -47 -38 -73.5t-92 -26.5q-43 0 -72 14v59q27 -13 64 -13q20 0 34.5 9 t14.5 27q0 17 -14.5 26t-34.5 9q-21 0 -39 -6l-22 39l54 71q-104 11 -162.5 67t-62.5 157z" />
<glyph unicode="&#x15f;" horiz-adv-x="515" d="M41 153h123q5 -87 103 -87q42 0 68 18.5t26 55.5q0 24 -19.5 39.5t-37 20t-59.5 12.5q-6 1 -9 2q-34 6 -54.5 11t-50 17t-46 27.5t-29 41.5t-12.5 61q0 77 57.5 120t148.5 43q206 0 211 -153h-123q-3 38 -24.5 55t-66.5 17q-40 0 -65 -16t-25 -48q0 -15 6.5 -26.5t13 -18 t25.5 -13t28.5 -8.5t36.5 -7q7 -1 10 -2q27 -5 39 -7.5t37.5 -9t38.5 -13t31.5 -18.5t27.5 -26.5t16 -35.5t7 -46q0 -73 -53.5 -120.5t-137.5 -52.5l-37 -50q45 2 78 -19t33 -65q0 -47 -38 -73.5t-92 -26.5q-43 0 -72 14v59q27 -13 64 -13q20 0 34.5 9t14.5 27 q0 17 -14.5 26t-34.5 9q-21 0 -39 -6l-22 39l54 72q-166 19 -171 165z" />
<glyph unicode="&#x160;" horiz-adv-x="620" d="M45 211h136q9 -129 138 -129q56 0 92.5 27.5t36.5 78.5q0 38 -25 62t-48 31.5t-77 18.5q-11 3 -17 4q-29 6 -46 10.5t-44.5 13.5t-44 18.5t-36.5 25t-31 34t-18.5 45t-7.5 58.5q0 93 69.5 149.5t178.5 56.5q251 0 265 -217h-135q-10 120 -130 120q-54 0 -87.5 -24 t-33.5 -72q0 -38 24.5 -62t48.5 -32t78 -19q8 -2 13 -3q28 -6 41 -9t39 -10t40 -14t34.5 -18t31.5 -24.5t23 -31.5t17 -41.5t5 -51.5q0 -96 -75 -158.5t-181 -62.5q-127 0 -198 56.5t-76 169.5zM90 894h116l93 -64l94 64h116l-149 -143h-121z" />
<glyph unicode="&#x161;" horiz-adv-x="515" d="M41 153h123q5 -87 103 -87q42 0 68 18.5t26 55.5q0 24 -19.5 39.5t-37 20t-59.5 12.5q-6 1 -9 2q-34 6 -54.5 11t-50 17t-46 27.5t-29 41.5t-12.5 61q0 77 57.5 120t148.5 43q206 0 211 -153h-123q-3 38 -24.5 55t-66.5 17q-40 0 -65 -16t-25 -48q0 -15 6.5 -26.5t13 -18 t25.5 -13t28.5 -8.5t36.5 -7q7 -1 10 -2q27 -5 39 -7.5t37.5 -9t38.5 -13t31.5 -18.5t27.5 -26.5t16 -35.5t7 -46q0 -77 -59.5 -125.5t-150.5 -48.5q-218 0 -223 168zM67 740h101l78 -78l78 78h102l-118 -157h-123z" />
<glyph unicode="&#x162;" horiz-adv-x="558" d="M30 601v99h498v-99h-184v-601h-23l-48 -64q45 2 78 -19t33 -65q0 -47 -38 -73.5t-92 -26.5q-43 0 -72 14v59q27 -13 64 -13q20 0 34.5 9t14.5 27q0 17 -14.5 26t-34.5 9q-21 0 -39 -6l-22 39l63 84h-34v601h-184z" />
<glyph unicode="&#x163;" horiz-adv-x="407" d="M20 435v85h85v140h125v-140h137v-85h-137v-277q0 -86 67 -86q29 0 75 14v-78q-53 -23 -117 -23h-2l-37 -49q45 2 78 -19t33 -65q0 -47 -38 -73.5t-92 -26.5q-43 0 -72 14v59q27 -13 64 -13q20 0 34.5 9t14.5 27q0 17 -14.5 26t-34.5 9q-21 0 -39 -6l-22 39l60 80 q-83 32 -83 140v299h-85z" />
<glyph unicode="&#x164;" horiz-adv-x="558" d="M30 601v99h498v-99h-184v-601h-130v601h-184zM69 894h116l93 -64l94 64h116l-149 -143h-121z" />
<glyph unicode="&#x165;" horiz-adv-x="407" d="M20 435v85h85v140h125v-140h137v-85h-137v-277q0 -86 67 -86q29 0 75 14v-78q-53 -23 -117 -23q-68 0 -109 37t-41 114v299h-85zM280 574v229h110l-24 -229h-86z" />
<glyph unicode="&#x166;" horiz-adv-x="558" d="M30 601v99h498v-99h-184v-203h127v-100h-127v-298h-130v298h-122v100h122v203h-184z" />
<glyph unicode="&#x167;" horiz-adv-x="407" d="M20 253v86h85v96h-85v85h85v140h125v-140h137v-85h-137v-96h98v-86h-98v-95q0 -86 67 -86q29 0 75 14v-78q-53 -23 -117 -23q-68 0 -109 37t-41 114v117h-85z" />
<glyph unicode="&#x168;" horiz-adv-x="706" d="M71 231v469h131v-449q0 -83 36 -125t116 -42q79 0 117.5 39t38.5 108v469h119v-449q0 -129 -74 -197.5t-201 -68.5q-129 0 -206 63t-77 183zM156 794q19 50 50.5 76.5t67.5 26.5q32 0 85 -22t66 -22q33 0 52 41l67 -32q-18 -50 -49.5 -76.5t-67.5 -26.5q-31 0 -84.5 22 t-67.5 22q-31 0 -52 -41z" />
<glyph unicode="&#x169;" d="M71 156v364h125v-339q0 -96 88 -96q31 0 64 15.5t56 38.5v381h125v-520h-125v68q-81 -83 -178 -83q-69 0 -112 40.5t-43 130.5zM116 622q19 50 50.5 76.5t65.5 26.5q31 0 77.5 -22t59.5 -22q29 0 48 41l67 -32q-18 -49 -49.5 -76t-65.5 -27q-31 0 -77 22t-60 22 q-28 0 -49 -41z" />
<glyph unicode="&#x16a;" horiz-adv-x="706" d="M71 231v469h131v-449q0 -83 36 -125t116 -42q79 0 117.5 39t38.5 108v469h119v-449q0 -129 -74 -197.5t-201 -68.5q-129 0 -206 63t-77 183zM183 782v86h332v-86h-332z" />
<glyph unicode="&#x16b;" d="M71 156v364h125v-339q0 -96 88 -96q31 0 64 15.5t56 38.5v381h125v-520h-125v68q-81 -83 -178 -83q-69 0 -112 40.5t-43 130.5zM146 612v86h308v-86h-308z" />
<glyph unicode="&#x16c;" horiz-adv-x="706" d="M71 231v469h131v-449q0 -83 36 -125t116 -42q79 0 117.5 39t38.5 108v469h119v-449q0 -129 -74 -197.5t-201 -68.5q-129 0 -206 63t-77 183zM186 894h86q0 -27 19.5 -44t58.5 -17t58.5 17t19.5 44h86q0 -74 -47 -113.5t-117 -39.5t-117 39.5t-47 113.5z" />
<glyph unicode="&#x16d;" d="M71 156v364h125v-339q0 -96 88 -96q31 0 64 15.5t56 38.5v381h125v-520h-125v68q-81 -83 -178 -83q-69 0 -112 40.5t-43 130.5zM145 740h85q0 -32 17.5 -54.5t51.5 -22.5t51.5 22.5t17.5 54.5h85q0 -83 -45 -125t-109 -42t-109 42t-45 125z" />
<glyph unicode="&#x16e;" horiz-adv-x="706" d="M71 231v469h131v-449q0 -83 36 -125t116 -42q79 0 117.5 39t38.5 108v469h119v-449q0 -129 -74 -197.5t-201 -68.5q-129 0 -206 63t-77 183zM228 822q0 46 35 73.5t87 27.5t87 -27.5t35 -73.5t-35 -73.5t-87 -27.5t-87 27.5t-35 73.5zM324 804q17 -28 45 -9q26 16 7 45 q-17 26 -45 9q-26 -18 -7 -45z" />
<glyph unicode="&#x16f;" d="M71 156v364h125v-339q0 -96 88 -96q31 0 64 15.5t56 38.5v381h125v-520h-125v68q-81 -83 -178 -83q-69 0 -112 40.5t-43 130.5zM178 660q0 45 34.5 72t87.5 27t87.5 -27t34.5 -72t-35 -71.5t-87 -26.5t-87 26.5t-35 71.5zM274 645q17 -28 45 -12q27 15 7 43 q-17 27 -45 11q-26 -15 -7 -42z" />
<glyph unicode="&#x170;" horiz-adv-x="706" d="M71 231v469h131v-449q0 -83 36 -125t116 -42q79 0 117.5 39t38.5 108v469h119v-449q0 -129 -74 -197.5t-201 -68.5q-129 0 -206 63t-77 183zM156 751l107 143h151l-158 -143h-100zM355 751l108 143h150l-158 -143h-100z" />
<glyph unicode="&#x171;" d="M71 156v364h125v-339q0 -96 88 -96q31 0 64 15.5t56 38.5v381h125v-520h-125v68q-81 -83 -178 -83q-69 0 -112 40.5t-43 130.5zM128 583l82 157h144l-130 -157h-96zM313 583l82 157h144l-130 -157h-96z" />
<glyph unicode="&#x172;" horiz-adv-x="706" d="M71 231v469h131v-449q0 -83 36 -125t116 -42q79 0 117.5 39t38.5 108v469h119v-449q0 -104 -48.5 -169t-136.5 -87q-107 -57 -107 -124q0 -21 14 -33t32 -12q32 0 70 20v-70q-42 -24 -104 -24q-52 0 -82 29t-30 72q0 75 86 133q-116 7 -184 69.5t-68 175.5z" />
<glyph unicode="&#x173;" d="M71 156v364h125v-339q0 -96 88 -96q31 0 64 15.5t56 38.5v381h125v-520h-1q-116 -60 -116 -129q0 -21 14 -33t32 -12q32 0 70 20v-70q-42 -24 -104 -24q-52 0 -82 29t-30 72q0 84 109 147h-17v68q-81 -83 -178 -83q-69 0 -112 40.5t-43 130.5z" />
<glyph unicode="&#x174;" horiz-adv-x="938" d="M10 700h139l94 -384l35 -166l38 166l97 384h133l100 -384l38 -168l35 168l86 384h123l-182 -700h-137l-98 363l-39 168l-39 -168l-95 -363h-137zM259 751l149 143h121l149 -143h-116l-94 64l-93 -64h-116z" />
<glyph unicode="&#x175;" horiz-adv-x="814" d="M15 520h131l64 -229l40 -162l43 162l65 229h111l68 -229l44 -162l39 162l63 229h116l-165 -520h-119l-63 212l-43 162l-44 -162l-61 -212h-121zM227 583l118 157h123l118 -157h-102l-78 79l-78 -79h-101z" />
<glyph unicode="&#x176;" horiz-adv-x="604" d="M21 700h140l156 -342l149 342h117l-212 -445v-255h-131v255zM92 751l149 143h121l149 -143h-116l-94 64l-93 -64h-116z" />
<glyph unicode="&#x177;" horiz-adv-x="527" d="M15 520h137l72 -209l49 -162l50 162l71 209h118l-264 -728h-113l78 211zM94 583l118 157h123l118 -157h-102l-78 79l-78 -79h-101z" />
<glyph unicode="&#x178;" horiz-adv-x="604" d="M21 700h140l156 -342l149 342h117l-212 -445v-255h-131v255zM118 830q0 31 21 51t53 20q31 0 52 -20t21 -51t-21 -51t-52 -20q-32 0 -53 20t-21 51zM338 830q0 31 21 51t53 20q31 0 52 -20t21 -51t-21 -51t-52 -20q-32 0 -53 20t-21 51z" />
<glyph unicode="&#x179;" horiz-adv-x="545" d="M40 0v99l318 502h-313v99h460v-99l-317 -502h317v-99h-465zM166 751l132 143h162l-187 -143h-107z" />
<glyph unicode="&#x17a;" horiz-adv-x="453" d="M35 0v86l249 349h-239v85h373v-85l-248 -349h248v-86h-383zM134 583l102 157h152l-153 -157h-101z" />
<glyph unicode="&#x17b;" horiz-adv-x="545" d="M40 0v99l318 502h-313v99h460v-99l-317 -502h317v-99h-465zM196 829q0 32 21.5 52.5t54.5 20.5t54.5 -20.5t21.5 -52.5q0 -31 -22 -52t-54 -21t-54 21t-22 52z" />
<glyph unicode="&#x17c;" horiz-adv-x="453" d="M35 0v86l249 349h-239v85h373v-85l-248 -349h248v-86h-383zM150 663q0 32 21.5 53.5t54.5 21.5q32 0 54 -21.5t22 -53.5t-22 -53.5t-54 -21.5q-33 0 -54.5 21.5t-21.5 53.5z" />
<glyph unicode="&#x17d;" horiz-adv-x="545" d="M40 0v99l318 502h-313v99h460v-99l-317 -502h317v-99h-465zM63 894h116l93 -64l94 64h116l-149 -143h-121z" />
<glyph unicode="&#x17e;" horiz-adv-x="453" d="M35 0v86l249 349h-239v85h373v-85l-248 -349h248v-86h-383zM52 740h101l78 -78l78 78h102l-118 -157h-123z" />
<glyph unicode="&#x17f;" horiz-adv-x="313" d="M87 0v593q0 83 46 124.5t128 41.5q58 0 92 -17v-83q-40 9 -65 9q-76 0 -76 -75v-593h-125z" />
<glyph unicode="&#x192;" horiz-adv-x="632" d="M-49 -32h136q10 -94 81 -94q35 0 59 24.5t24 76.5v218h-156v99h156v211q0 98 59.5 155t153.5 57q100 0 155.5 -49t61.5 -142h-136q-10 94 -81 94q-35 0 -59 -24.5t-24 -76.5v-225h156v-99h-156v-204q0 -98 -59.5 -155t-153.5 -57q-100 0 -155.5 49t-61.5 142z" />
<glyph unicode="&#x1fc;" horiz-adv-x="965" d="M5 0l471 700h434v-99h-295v-183h275v-99h-275v-220h295v-99h-425v173h-226l-110 -173h-144zM321 270h164v262l-86 -140zM500 751l132 143h162l-187 -143h-107z" />
<glyph unicode="&#x1fd;" horiz-adv-x="883" d="M45 125q0 73 60.5 121t190.5 48q21 0 75 -4v57q0 104 -86 104q-49 0 -73 -24t-26 -81h-125q3 93 62.5 141t161.5 48q111 0 161 -67q64 67 160 67q116 0 178 -75.5t52 -219.5h-341q4 -171 112 -171q82 0 96 82h126q-9 -76 -68.5 -121t-153.5 -45q-132 0 -192 97 q-97 -97 -212 -97q-75 0 -116.5 37.5t-41.5 102.5zM170 142q0 -35 22.5 -51.5t59.5 -16.5q34 0 71 20t64 49q-11 35 -14 76q-33 4 -70 4q-133 0 -133 -81zM299 583l102 157h152l-153 -157h-101zM498 315h211q-1 138 -103 138q-93 0 -108 -138z" />
<glyph unicode="&#x218;" horiz-adv-x="620" d="M45 211h136q9 -129 138 -129q56 0 92.5 27.5t36.5 78.5q0 38 -25 62t-48 31.5t-77 18.5q-11 3 -17 4q-29 6 -46 10.5t-44.5 13.5t-44 18.5t-36.5 25t-31 34t-18.5 45t-7.5 58.5q0 93 69.5 149.5t178.5 56.5q251 0 265 -217h-135q-10 120 -130 120q-54 0 -87.5 -24 t-33.5 -72q0 -38 24.5 -62t48.5 -32t78 -19q8 -2 13 -3q28 -6 41 -9t39 -10t40 -14t34.5 -18t31.5 -24.5t23 -31.5t17 -41.5t5 -51.5q0 -96 -75 -158.5t-181 -62.5q-127 0 -198 56.5t-76 169.5zM237 -248l20 189h114l-48 -189h-86z" />
<glyph unicode="&#x219;" horiz-adv-x="515" d="M41 153h123q5 -87 103 -87q42 0 68 18.5t26 55.5q0 24 -19.5 39.5t-37 20t-59.5 12.5q-6 1 -9 2q-34 6 -54.5 11t-50 17t-46 27.5t-29 41.5t-12.5 61q0 77 57.5 120t148.5 43q206 0 211 -153h-123q-3 38 -24.5 55t-66.5 17q-40 0 -65 -16t-25 -48q0 -15 6.5 -26.5t13 -18 t25.5 -13t28.5 -8.5t36.5 -7q7 -1 10 -2q27 -5 39 -7.5t37.5 -9t38.5 -13t31.5 -18.5t27.5 -26.5t16 -35.5t7 -46q0 -77 -59.5 -125.5t-150.5 -48.5q-218 0 -223 168zM190 -248l20 189h114l-48 -189h-86z" />
<glyph unicode="&#x21a;" horiz-adv-x="558" d="M30 601v99h498v-99h-184v-601h-130v601h-184zM202 -248l20 189h114l-48 -189h-86z" />
<glyph unicode="&#x21b;" horiz-adv-x="407" d="M20 435v85h85v140h125v-140h137v-85h-137v-277q0 -86 67 -86q29 0 75 14v-78q-53 -23 -117 -23q-68 0 -109 37t-41 114v299h-85zM138 -248l20 189h114l-48 -189h-86z" />
<glyph unicode="&#x2c6;" horiz-adv-x="459" d="M50 583l118 157h123l118 -157h-102l-78 79l-78 -79h-101z" />
<glyph unicode="&#x2c7;" horiz-adv-x="459" d="M50 740h101l78 -78l78 78h102l-118 -157h-123z" />
<glyph unicode="&#x2d8;" horiz-adv-x="408" d="M50 740h85q0 -32 17.5 -54.5t51.5 -22.5t51.5 22.5t17.5 54.5h85q0 -83 -45 -125t-109 -42t-109 42t-45 125z" />
<glyph unicode="&#x2d9;" horiz-adv-x="252" d="M50 663q0 32 21.5 53.5t54.5 21.5q32 0 54 -21.5t22 -53.5t-22 -53.5t-54 -21.5q-33 0 -54.5 21.5t-21.5 53.5z" />
<glyph unicode="&#x2da;" horiz-adv-x="344" d="M50 660q0 45 34.5 72t87.5 27t87.5 -27t34.5 -72t-35 -71.5t-87 -26.5t-87 26.5t-35 71.5zM146 645q17 -28 45 -12q27 15 7 43q-17 27 -45 11q-26 -15 -7 -42z" />
<glyph unicode="&#x2db;" horiz-adv-x="316" d="M50 -147q0 84 109 147h107q-116 -60 -116 -129q0 -21 14 -33t32 -12q32 0 70 20v-70q-42 -24 -104 -24q-52 0 -82 29t-30 72z" />
<glyph unicode="&#x2dc;" horiz-adv-x="468" d="M50 622q19 50 50.5 76.5t65.5 26.5q31 0 77.5 -22t59.5 -22q29 0 48 41l67 -32q-18 -49 -49.5 -76t-65.5 -27q-31 0 -77 22t-60 22q-28 0 -49 -41z" />
<glyph unicode="&#x2dd;" horiz-adv-x="509" d="M50 583l82 157h144l-130 -157h-96zM235 583l82 157h144l-130 -157h-96z" />
<glyph unicode="&#x326;" horiz-adv-x="0" d="M-184 -248l20 189h114l-48 -189h-86z" />
<glyph unicode="&#x3c0;" horiz-adv-x="605" d="M71 0v520h463v-520h-125v435h-213v-435h-125z" />
<glyph unicode="&#xe3f;" horiz-adv-x="641" d="M81 0v700h163v120h120v-122q90 -8 146.5 -50t56.5 -126q0 -52 -30 -95.5t-79 -58.5q65 -13 101 -53.5t36 -107.5q0 -95 -64.5 -147.5t-166.5 -58.5v-121h-120v120h-163zM212 97h124q127 0 127 110q0 99 -127 99h-124v-209zM212 401h102q55 0 88 27t33 81q0 94 -121 94 h-102v-202z" />
<glyph unicode="&#x1e80;" horiz-adv-x="938" d="M10 700h139l94 -384l35 -166l38 166l97 384h133l100 -384l38 -168l35 168l86 384h123l-182 -700h-137l-98 363l-39 168l-39 -168l-95 -363h-137zM293 894h162l132 -143h-107z" />
<glyph unicode="&#x1e81;" horiz-adv-x="814" d="M15 520h131l64 -229l40 -162l43 162l65 229h111l68 -229l44 -162l39 162l63 229h116l-165 -520h-119l-63 212l-43 162l-44 -162l-61 -212h-121zM220 740h152l102 -157h-102z" />
<glyph unicode="&#x1e82;" horiz-adv-x="938" d="M10 700h139l94 -384l35 -166l38 166l97 384h133l100 -384l38 -168l35 168l86 384h123l-182 -700h-137l-98 363l-39 168l-39 -168l-95 -363h-137zM351 751l132 143h162l-187 -143h-107z" />
<glyph unicode="&#x1e83;" horiz-adv-x="814" d="M15 520h131l64 -229l40 -162l43 162l65 229h111l68 -229l44 -162l39 162l63 229h116l-165 -520h-119l-63 212l-43 162l-44 -162l-61 -212h-121zM345 583l102 157h152l-153 -157h-101z" />
<glyph unicode="&#x1e84;" horiz-adv-x="938" d="M10 700h139l94 -384l35 -166l38 166l97 384h133l100 -384l38 -168l35 168l86 384h123l-182 -700h-137l-98 363l-39 168l-39 -168l-95 -363h-137zM285 830q0 31 21 51t53 20q31 0 52 -20t21 -51t-21 -51t-52 -20q-32 0 -53 20t-21 51zM505 830q0 31 21 51t53 20 q31 0 52 -20t21 -51t-21 -51t-52 -20q-32 0 -53 20t-21 51z" />
<glyph unicode="&#x1e85;" horiz-adv-x="814" d="M15 520h131l64 -229l40 -162l43 162l65 229h111l68 -229l44 -162l39 162l63 229h116l-165 -520h-119l-63 212l-43 162l-44 -162l-61 -212h-121zM232 663q0 31 21 52t52 21t52 -21t21 -52t-21 -51.5t-52 -20.5t-52 20.5t-21 51.5zM435 663q0 31 21 52t52 21t52 -21t21 -52 t-21 -51.5t-52 -20.5t-52 20.5t-21 51.5z" />
<glyph unicode="&#x1e9e;" horiz-adv-x="690" d="M81 0v397q0 159 74 234.5t207 75.5h246v-100l-144 -210q55 -12 94 -38t57.5 -58.5t26.5 -61.5t8 -58q0 -95 -60.5 -145.5t-146.5 -50.5q-88 0 -136.5 41.5t-50.5 117.5h126q6 -69 64 -69q33 0 52 24t19 73q0 60 -39 98t-114 38h-30v99l137 200h-109q-73 0 -111.5 -47 t-38.5 -153v-407h-131z" />
<glyph unicode="&#x1ef2;" horiz-adv-x="604" d="M21 700h140l156 -342l149 342h117l-212 -445v-255h-131v255zM121 894h162l132 -143h-107z" />
<glyph unicode="&#x1ef3;" horiz-adv-x="527" d="M15 520h137l72 -209l49 -162l50 162l71 209h118l-264 -728h-113l78 211zM97 740h152l102 -157h-102z" />
<glyph unicode="&#x2000;" horiz-adv-x="467" />
<glyph unicode="&#x2001;" horiz-adv-x="935" />
<glyph unicode="&#x2002;" horiz-adv-x="467" />
<glyph unicode="&#x2003;" horiz-adv-x="935" />
<glyph unicode="&#x2004;" horiz-adv-x="311" />
<glyph unicode="&#x2005;" horiz-adv-x="233" />
<glyph unicode="&#x2006;" horiz-adv-x="155" />
<glyph unicode="&#x2007;" horiz-adv-x="155" />
<glyph unicode="&#x2008;" horiz-adv-x="116" />
<glyph unicode="&#x2009;" horiz-adv-x="187" />
<glyph unicode="&#x200a;" horiz-adv-x="51" />
<glyph unicode="&#x2010;" horiz-adv-x="344" d="M50 227v99h244v-99h-244z" />
<glyph unicode="&#x2011;" horiz-adv-x="344" d="M50 227v99h244v-99h-244z" />
<glyph unicode="&#x2012;" horiz-adv-x="344" d="M50 227v99h244v-99h-244z" />
<glyph unicode="&#x2013;" horiz-adv-x="500" d="M40 227v99h420v-99h-420z" />
<glyph unicode="&#x2014;" horiz-adv-x="1000" d="M40 227v99h920v-99h-920z" />
<glyph unicode="&#x2018;" horiz-adv-x="255" d="M26 596l100 264h102l-74 -264h-128z" />
<glyph unicode="&#x2019;" horiz-adv-x="255" d="M26 596l75 264h127l-99 -264h-103z" />
<glyph unicode="&#x201a;" horiz-adv-x="255" d="M26 -160l75 263h127l-99 -263h-103z" />
<glyph unicode="&#x201c;" horiz-adv-x="436" d="M26 596l100 264h102l-74 -264h-128zM208 596l99 264h103l-75 -264h-127z" />
<glyph unicode="&#x201d;" horiz-adv-x="436" d="M26 596l75 264h127l-99 -264h-103zM208 596l74 264h128l-100 -264h-102z" />
<glyph unicode="&#x201e;" horiz-adv-x="436" d="M26 -160l75 263h127l-99 -263h-103zM208 -160l74 263h128l-100 -263h-102z" />
<glyph unicode="&#x2020;" horiz-adv-x="525" d="M59 431v99h138v170h131v-170h138v-99h-138v-431h-131v431h-138z" />
<glyph unicode="&#x2021;" horiz-adv-x="525" d="M59 170v99h138v162h-138v99h138v170h131v-170h138v-99h-138v-162h138v-99h-138v-170h-131v170h-138z" />
<glyph unicode="&#x2022;" horiz-adv-x="371" d="M50 350q0 58 40 97t96 39t95.5 -39t39.5 -97t-39.5 -97t-95.5 -39t-96 39t-40 97z" />
<glyph unicode="&#x2026;" horiz-adv-x="810" d="M42 63q0 34 22 56t56 22t56 -22t22 -56t-22 -56t-56 -22t-56 22t-22 56zM327 63q0 34 22 56t56 22t56 -22t22 -56t-22 -56t-56 -22t-56 22t-22 56zM612 63q0 34 22 56t56 22t56 -22t22 -56t-22 -56t-56 -22t-56 22t-22 56z" />
<glyph unicode="&#x202f;" horiz-adv-x="187" />
<glyph unicode="&#x2030;" horiz-adv-x="1442" d="M49 490q0 99 52.5 159t138.5 60t138.5 -60t52.5 -159t-52.5 -159t-138.5 -60t-138.5 60t-52.5 159zM159 490q0 -69 21 -105t60 -36t60 36t21 105t-21 105t-60 36t-60 -36t-21 -105zM220 0l453 700h124l-453 -700h-124zM590 210q0 99 52.5 159t138.5 60t138.5 -60 t52.5 -159t-52.5 -159t-138.5 -60t-138.5 60t-52.5 159zM700 210q0 -69 21 -105t60 -36t60 36t21 105t-21 105t-60 36t-60 -36t-21 -105zM1009 210q0 99 52.5 159t138.5 60t138.5 -60t52.5 -159t-52.5 -159t-138.5 -60t-138.5 60t-52.5 159zM1119 210q0 -69 21 -105t60 -36 t60 36t21 105t-21 105t-60 36t-60 -36t-21 -105z" />
<glyph unicode="&#x2039;" horiz-adv-x="340" d="M50 218v111l240 191v-134l-139 -109l139 -109v-141z" />
<glyph unicode="&#x203a;" horiz-adv-x="340" d="M50 27v134l138 110l-138 108v141l240 -191v-111z" />
<glyph unicode="&#x2044;" horiz-adv-x="463" d="M-57 0l453 700h124l-453 -700h-124z" />
<glyph unicode="&#x205f;" horiz-adv-x="233" />
<glyph unicode="&#x20a1;" horiz-adv-x="672" d="M21 -120l73 246q-49 90 -49 224q0 138 59.5 232t162.5 122l35 116h122l-32 -107q29 -3 64 -13l36 120h122l-54 -183q61 -64 71 -175h-139q-18 154 -141 154q-76 0 -121.5 -69.5t-45.5 -196.5q0 -129 43 -197.5t124 -68.5q124 0 141 154h139q-12 -122 -82.5 -185.5 t-184.5 -67.5l-31 -105h-122l36 120q-33 10 -60 27l-44 -147h-122z" />
<glyph unicode="&#x20a5;" horiz-adv-x="932" d="M71 0v520h125v-66q81 84 178 84q107 0 141 -89q19 20 43 38l89 149h123l-58 -98q67 -2 108 -42.5t41 -129.5v-366h-125v342q0 94 -85 95l-123 -207v-230h-125v21l-78 -131h-123l201 337v115q0 50 -21.5 72.5t-65.5 22.5q-31 0 -64 -15.5t-56 -37.5v-384h-125z" />
<glyph unicode="&#x20a6;" horiz-adv-x="745" d="M14 199v100h96v104h-96v100h96v197h126l283 -501l-3 158v343h119v-197h96v-100h-96v-104h96v-100h-96v-199h-125l-284 500l3 -158v-342h-119v199h-96z" />
<glyph unicode="&#x20a8;" horiz-adv-x="596" d="M31 436v100h306q-27 65 -116 65h-190v99h94h429v-99h-131q31 -29 45 -65h86v-100h-76q-12 -86 -71.5 -132t-145.5 -54l263 -250h-160l-251 248v95h108q106 0 123 93h-313z" />
<glyph unicode="&#x20a9;" horiz-adv-x="958" d="M14 199v100h130l-27 104h-103v100h77l-51 197h139l83 -384l34 -166l36 166l91 384h133l92 -384l36 -168l34 168l77 384h123l-48 -197h74v-100h-99l-26 -104h125v-100h-149l-49 -199h-137l-89 363l-36 168l-36 -168l-90 -363h-137l-51 199h-156z" />
<glyph unicode="&#x20aa;" horiz-adv-x="796" d="M94 0v700h224q125 0 182 -60.5t57 -199.5q0 -100 -25 -238h-105q21 144 21 222q0 92 -32 134.5t-108 42.5h-103v-601h-111zM266 0v497h110v-398h96q78 0 113.5 62t35.5 189t-40 350h105q41 -193 41 -349q0 -180 -60 -265.5t-185 -85.5h-216z" />
<glyph unicode="&#x20ab;" horiz-adv-x="581" d="M45 0v88h516v-88h-516zM45 350q0 102 57.5 159t138.5 57q88 0 130 -58v89h-112v86h112v61h122v-61h68v-86h-68v-448h-122v50q-56 -65 -144 -65q-78 0 -130 57t-52 159zM167 350q0 -62 28.5 -95t71.5 -33q58 0 104 44v171q-43 41 -99 41q-44 0 -74.5 -33t-30.5 -95z" />
<glyph unicode="&#x20ac;" horiz-adv-x="686" d="M24 193v99h70q-2 38 -2 58q0 17 2 47h-70v99h87q29 103 97.5 161t166.5 58q113 0 185.5 -64t84.5 -189h-140q-16 154 -130 154q-94 0 -127 -120h164v-99h-180q-1 -15 -1 -47q0 -22 2 -58h179v-99h-163q32 -109 126 -109q114 0 130 154h140q-12 -125 -84.5 -189 t-185.5 -64q-104 0 -170.5 54t-93.5 154h-87z" />
<glyph unicode="&#x20ad;" horiz-adv-x="628" d="M9 318v100h90v282h131v-282h5l208 282h130l-216 -282h218v-100h-204l236 -318h-156l-221 316v-316h-131v318h-90z" />
<glyph unicode="&#x20ae;" horiz-adv-x="558" d="M30 601v99h498v-99h-184v-109l121 49v-104l-121 -49v-79l121 49v-104l-121 -49v-205h-130v152l-121 -49v104l121 49v79l-121 -49v104l121 49v162h-184z" />
<glyph unicode="&#x20b1;" horiz-adv-x="655" d="M9 418v99h90v183h208q61 0 113 -19t91.5 -61.5t50.5 -102.5h79v-99h-80q-17 -88 -89 -134.5t-165 -46.5h-77v-237h-131v418h-90zM230 335h77q94 0 119 83h-196v-83zM230 517h197q-12 42 -44 64t-76 22h-77v-86z" />
<glyph unicode="&#x20b4;" horiz-adv-x="637" d="M45 298v100h296q46 22 71 49t25 69q0 102 -114 102q-116 0 -126 -109h-136q8 100 74 153t188 53q113 0 177 -48.5t64 -132.5q0 -86 -67 -136h94v-100h-313q-88 -43 -88 -114q0 -102 114 -102q122 0 132 109h135q-7 -99 -75.5 -152.5t-191.5 -53.5q-113 0 -177 48.5 t-64 132.5q0 82 62 132h-80z" />
<glyph unicode="&#x20b5;" horiz-adv-x="672" d="M45 350q0 145 65 240.5t177 118.5v111h119v-109q97 -13 156 -75.5t69 -173.5h-139q-18 154 -141 154q-76 0 -121.5 -69.5t-45.5 -196.5q0 -129 43 -197.5t124 -68.5q124 0 141 154h139q-10 -111 -69 -173.5t-156 -75.5v-109h-119v110q-119 21 -180.5 115.5t-61.5 244.5z " />
<glyph unicode="&#x2113;" horiz-adv-x="482" d="M29 168v79q50 25 85 45v137q0 139 47.5 212.5t131.5 73.5q60 0 98 -35t38 -114q0 -143 -194 -283v-125q0 -42 19 -64t52 -22q30 0 75 14v-78q-53 -23 -117 -23q-68 0 -109 37t-41 114v72q-37 -21 -85 -40zM235 383q86 88 86 182q0 66 -33 66q-53 0 -53 -202v-46z" />
<glyph unicode="&#x2117;" horiz-adv-x="830" d="M50 350q0 152 105 258.5t260 106.5t260 -106.5t105 -258.5t-105 -258.5t-260 -106.5t-260 106.5t-105 258.5zM129 350q0 -122 82.5 -207t203.5 -85t203.5 85t82.5 207t-82.5 207t-203.5 85t-203.5 -85t-82.5 -207zM292 143v413h139q64 0 111.5 -35t47.5 -102 q0 -65 -47.5 -100.5t-111.5 -35.5h-50v-140h-89zM381 349h50q32 0 51 17.5t19 52.5q0 71 -70 71h-50v-141z" />
<glyph unicode="&#x2120;" horiz-adv-x="698" d="M50 492h73q5 -42 52 -42t47 35q0 17 -15 24t-45 13q-5 1 -7 1q-22 4 -36 8t-31.5 14t-26 28t-8.5 44q0 41 32 66t82 25q54 0 86 -23.5t35 -69.5h-73q-5 36 -48 36q-44 0 -44 -29q0 -25 57 -35q6 -1 9 -2q24 -5 36.5 -8.5t30.5 -13.5t26.5 -28t8.5 -44q0 -44 -33 -71 t-83 -27q-55 0 -88 24.5t-37 74.5zM337 401v299h75l83 -196l80 196h73v-299h-68v89l1 86l-63 -154h-50l-67 156l2 -90v-87h-66z" />
<glyph unicode="&#x2122;" horiz-adv-x="680" d="M50 644v56h226v-56h-79v-243h-71v243h-76zM319 401v299h76l82 -196l81 196h72v-299h-68v89l2 86l-64 -154h-50l-66 156l1 -90v-87h-66z" />
<glyph unicode="&#x2126;" horiz-adv-x="742" d="M40 0v99h166q-69 45 -115 125.5t-46 168.5q0 137 89.5 229.5t236.5 92.5q146 0 235.5 -92.5t89.5 -229.5q0 -88 -46 -168.5t-115 -125.5h167v-99h-265v99q51 37 85.5 107.5t34.5 158.5q0 118 -49.5 184.5t-136.5 66.5t-137 -66.5t-50 -184.5q0 -88 34.5 -158t85.5 -108 v-99h-264z" />
<glyph unicode="&#x212e;" horiz-adv-x="774" d="M50 321q0 144 98 241t239 97t239 -97t98 -241h-523v-239q79 -65 186 -65q75 0 138 34t104 93h47q-45 -74 -121.5 -117t-167.5 -43q-141 0 -239 96.5t-98 240.5zM201 354h373l-1 206q-80 66 -186 66t-186 -66v-206z" />
<glyph unicode="&#x2153;" horiz-adv-x="925" d="M49 556v91l105 53h105v-420h-105v330zM137 0l453 700h124l-453 -700h-124zM529 115h107q6 -49 68 -49q66 0 66 54q0 56 -85 56h-51v77h51q73 0 73 54q0 47 -55 47t-62 -49h-107q5 59 50.5 91.5t118.5 32.5q71 0 115.5 -31.5t44.5 -87.5q0 -30 -20 -55.5t-58 -35.5 q89 -16 89 -99q0 -58 -49.5 -93.5t-120.5 -35.5q-80 0 -125.5 32t-49.5 92z" />
<glyph unicode="&#x2154;" horiz-adv-x="1023" d="M49 571q4 67 48.5 102.5t118.5 35.5q73 0 116.5 -34t43.5 -96q0 -28 -8.5 -50.5t-35 -51t-51.5 -50t-82 -68.5h180v-79h-318v79q22 18 52.5 43t47 38.5t37.5 31.5t32 30t22 26t15 26t4 25q0 55 -55 55q-54 0 -60 -63h-107zM235 0l453 700h124l-453 -700h-124zM627 115 h107q6 -49 68 -49q66 0 66 54q0 56 -85 56h-51v77h51q73 0 73 54q0 47 -55 47t-62 -49h-107q5 59 50.5 91.5t118.5 32.5q71 0 115.5 -31.5t44.5 -87.5q0 -30 -20 -55.5t-58 -35.5q89 -16 89 -99q0 -58 -49.5 -93.5t-120.5 -35.5q-80 0 -125.5 32t-49.5 92z" />
<glyph unicode="&#x215b;" horiz-adv-x="934" d="M49 556v91l105 53h105v-420h-105v330zM137 0l453 700h124l-453 -700h-124zM528 113q0 37 23 65.5t65 39.5q-35 11 -55.5 35.5t-20.5 57.5q0 56 46 87t120 31t120 -31t46 -87q0 -33 -20.5 -57.5t-55.5 -35.5q42 -11 65 -39.5t23 -65.5q0 -61 -49 -91.5t-129 -30.5 t-129 30.5t-49 91.5zM634 123q0 -57 72 -57t72 57q0 54 -72 54t-72 -54zM645 302q0 -52 61 -52t61 52q0 26 -17 39t-44 13t-44 -13t-17 -39z" />
<glyph unicode="&#x215c;" horiz-adv-x="1007" d="M49 395h107q6 -49 68 -49q66 0 66 54q0 56 -85 56h-51v77h51q73 0 73 54q0 47 -55 47t-62 -49h-107q5 59 50.5 91.5t118.5 32.5q71 0 115.5 -31.5t44.5 -87.5q0 -30 -20 -55.5t-58 -35.5q89 -16 89 -99q0 -58 -49.5 -93.5t-120.5 -35.5q-80 0 -125.5 32t-49.5 92zM210 0 l453 700h124l-453 -700h-124zM600 113q0 37 23 65.5t65 39.5q-35 11 -55.5 35.5t-20.5 57.5q0 56 46 87t120 31t120 -31t46 -87q0 -33 -20.5 -57.5t-55.5 -35.5q42 -11 65 -39.5t23 -65.5q0 -61 -49 -91.5t-129 -30.5t-129 30.5t-49 91.5zM706 123q0 -57 72 -57t72 57 q0 54 -72 54t-72 -54zM717 302q0 -52 61 -52t61 52q0 26 -17 39t-44 13t-44 -13t-17 -39z" />
<glyph unicode="&#x215d;" horiz-adv-x="987" d="M49 388h107q7 -42 57 -42q61 0 61 72q0 73 -61 73q-39 0 -64 -27h-88v236h289v-80h-201v-88q34 33 93 33q61 0 99.5 -38.5t38.5 -108.5q0 -68 -49 -107.5t-118 -39.5q-75 0 -117.5 30t-46.5 87zM190 0l453 700h124l-453 -700h-124zM581 113q0 37 23 65.5t65 39.5 q-35 11 -55.5 35.5t-20.5 57.5q0 56 46 87t120 31t120 -31t46 -87q0 -33 -20.5 -57.5t-55.5 -35.5q42 -11 65 -39.5t23 -65.5q0 -61 -49 -91.5t-129 -30.5t-129 30.5t-49 91.5zM687 123q0 -57 72 -57t72 57q0 54 -72 54t-72 -54zM698 302q0 -52 61 -52t61 52q0 26 -17 39 t-44 13t-44 -13t-17 -39z" />
<glyph unicode="&#x215e;" horiz-adv-x="884" d="M49 620v80h291v-80l-154 -340h-102l157 340h-192zM87 0l453 700h124l-453 -700h-124zM478 113q0 37 23 65.5t65 39.5q-35 11 -55.5 35.5t-20.5 57.5q0 56 46 87t120 31t120 -31t46 -87q0 -33 -20.5 -57.5t-55.5 -35.5q42 -11 65 -39.5t23 -65.5q0 -61 -49 -91.5 t-129 -30.5t-129 30.5t-49 91.5zM584 123q0 -57 72 -57t72 57q0 54 -72 54t-72 -54zM595 302q0 -52 61 -52t61 52q0 26 -17 39t-44 13t-44 -13t-17 -39z" />
<glyph unicode="&#x2190;" horiz-adv-x="759" d="M40 263l307 307l70 -70l-186 -188h488v-99h-488l186 -186l-70 -70z" />
<glyph unicode="&#x2191;" horiz-adv-x="693" d="M40 295l306 307l307 -307l-71 -70l-186 186v-488h-99v489l-187 -187z" />
<glyph unicode="&#x2192;" horiz-adv-x="759" d="M40 213v99h488l-187 188l71 70l307 -307l-307 -306l-71 70l187 186h-488z" />
<glyph unicode="&#x2193;" horiz-adv-x="693" d="M40 230l70 71l187 -187v488h99v-487l186 186l71 -71l-307 -307z" />
<glyph unicode="&#x2196;" horiz-adv-x="634" d="M80 87v433h433v-99h-264l345 -345l-70 -70l-345 345v-264h-99z" />
<glyph unicode="&#x2197;" horiz-adv-x="634" d="M40 76l344 345h-263v99h433v-433h-99v264l-345 -345z" />
<glyph unicode="&#x2198;" horiz-adv-x="634" d="M40 451l70 69l345 -345v265h99v-434h-433v100h263z" />
<glyph unicode="&#x2199;" horiz-adv-x="634" d="M80 6v434h99v-265l345 345l70 -69l-345 -345h264v-100h-433z" />
<glyph unicode="&#x2202;" horiz-adv-x="638" d="M45 184q0 123 69.5 196t182.5 73q47 0 91 -22.5t68 -57.5q6 48 6 102q0 93 -30.5 142t-79.5 49q-76 0 -105 -84h-133q24 85 90 131t164 46q100 0 162 -81t62 -221q0 -217 -89.5 -344.5t-246.5 -127.5q-92 0 -151.5 54.5t-59.5 144.5zM177 191q0 -49 25.5 -81t70.5 -32 q56 0 101 58t68 157q-17 27 -51.5 44t-73.5 17q-69 0 -104.5 -47t-35.5 -116z" />
<glyph unicode="&#x2205;" horiz-adv-x="662" d="M50 366q0 121 81 201.5t200 80.5q59 0 110 -21l46 72l81 -50l-46 -73q90 -82 90 -210q0 -121 -81 -201.5t-200 -80.5q-58 0 -109 21l-46 -73l-81 51l46 72q-91 83 -91 211zM149 366q0 -76 46 -125l192 300q-29 8 -56 8q-77 0 -129.5 -51.5t-52.5 -131.5zM277 191 q27 -8 54 -8q77 0 129.5 51.5t52.5 131.5q0 74 -46 125z" />
<glyph unicode="&#x2206;" horiz-adv-x="624" d="M30 0v99l210 601h136l218 -601v-99h-564zM151 99h306l-108 315l-49 166l-47 -166z" />
<glyph unicode="&#x220f;" horiz-adv-x="736" d="M81 0v700h574v-700h-130v601h-313v-601h-131z" />
<glyph unicode="&#x2211;" horiz-adv-x="572" d="M81 0v99l200 255l-200 247v99h436v-99h-289l156 -193v-99l-166 -210h299v-99h-436z" />
<glyph unicode="&#x2212;" horiz-adv-x="569" d="M50 316v100h469v-100h-469z" />
<glyph unicode="&#x221a;" horiz-adv-x="661" d="M31 435v85h203l76 -232l47 -161l46 161l126 412h117l-236 -700h-123l-157 435h-99z" />
<glyph unicode="&#x221e;" horiz-adv-x="847" d="M50 353q0 82 52.5 138t130.5 56q94 0 190 -115q45 53 90.5 84t100.5 31q78 0 130.5 -56t52.5 -138t-52.5 -138t-130.5 -56q-55 0 -100.5 31t-90.5 84q-96 -115 -190 -115q-78 0 -130.5 56t-52.5 138zM159 353q0 -39 22.5 -65t59.5 -26q29 0 56.5 23t63.5 68 q-36 45 -63.5 68t-56.5 23q-37 0 -59.5 -26t-22.5 -65zM486 353q36 -45 63.5 -68t56.5 -23q37 0 59.5 26t22.5 65t-22.5 65t-59.5 26q-29 0 -56.5 -23t-63.5 -68z" />
<glyph unicode="&#x222b;" horiz-adv-x="433" d="M60 -126q41 0 66 24.5t25 76.5v528q0 99 61.5 155.5t160.5 56.5v-97q-41 0 -66 -24.5t-25 -76.5v-528q0 -99 -61 -155.5t-161 -56.5v97z" />
<glyph unicode="&#x2248;" horiz-adv-x="602" d="M39 221q53 129 161 129q41 0 78.5 -19t68.5 -38.5t55 -19.5q42 0 78 71l83 -43q-53 -128 -161 -128q-41 0 -78.5 19.5t-68.5 38.5t-55 19q-41 0 -78 -71zM39 430q53 129 161 129q41 0 78.5 -19.5t68.5 -38.5t55 -19q42 0 78 71l83 -43q-53 -128 -161 -128q-32 0 -63 12 t-51 26.5t-44 26.5t-44 12q-41 0 -78 -71z" />
<glyph unicode="&#x2260;" horiz-adv-x="569" d="M50 212v99h161l42 110h-203v99h240l59 155h105l-59 -155h124v-99h-161l-42 -110h203v-99h-240l-60 -157h-105l60 157h-124z" />
<glyph unicode="&#x2264;" horiz-adv-x="569" d="M50 0v99h469v-99h-469zM50 348v101l469 196v-98l-346 -146l346 -144v-105z" />
<glyph unicode="&#x2265;" horiz-adv-x="569" d="M50 0v99h469v-99h-469zM50 152v98l346 146l-346 144v105l469 -196v-101z" />
<glyph unicode="&#x25ca;" horiz-adv-x="590" d="M50 350l182 350h126l182 -350l-182 -350h-126zM171 350l124 -233l124 233l-124 232z" />
<glyph unicode="&#x25fc;" horiz-adv-x="520" d="M0 0v520h520v-520h-520z" />
<glyph unicode="&#x27f5;" horiz-adv-x="1388" d="M40 263l307 307l70 -70l-186 -188h1117v-99h-1117l186 -186l-70 -70z" />
<glyph unicode="&#x27f6;" horiz-adv-x="1388" d="M40 213v99h1118l-187 188l70 70l307 -307l-307 -306l-70 70l186 186h-1117z" />
<glyph unicode="&#x301a;" horiz-adv-x="385" d="M120 -125v950h245v-85h-74v-780h74v-85h-245zM189 -40h33v780h-33v-780z" />
<glyph unicode="&#x301b;" horiz-adv-x="385" d="M20 -40h74v780h-74v85h245v-950h-245v85zM163 -40h33v780h-33v-780z" />
<glyph horiz-adv-x="742" d="M45 350q0 166 88 265.5t238 99.5q149 0 237 -99.5t88 -265.5t-88 -265.5t-237 -99.5q-150 0 -238 99.5t-88 265.5zM184 350q0 -128 50 -197t137 -69t136.5 69t49.5 197t-49.5 197t-136.5 69t-137 -69t-50 -197zM241 -53h373v-99h-373v99z" />
<glyph horiz-adv-x="595" d="M45 260q0 126 64.5 200.5t156.5 74.5q81 0 133 -61v46h125v-520h-125v53q-68 -68 -156 -68t-143 73.5t-55 201.5zM174 260q0 -90 31 -136t83 -46q63 0 111 46v276q-44 42 -103 42q-53 0 -87.5 -46.5t-34.5 -135.5z" />
<glyph horiz-adv-x="598" d="M25 -74q0 69 77 123q-39 25 -39 83q0 53 48 107q-67 45 -67 127q0 81 65 125t167 44q59 0 107 -15h181v-85h-71q15 -30 15 -69q0 -82 -65 -126t-167 -44q-56 0 -104 14q-7 -18 -7 -36q0 -43 46 -43h158q86 0 133.5 -39.5t47.5 -105.5q0 -88 -83 -148.5t-203 -60.5 q-116 0 -177.5 39t-61.5 110zM139 -36q0 -52 36 -79t103 -27q69 0 108.5 27.5t39.5 74.5q0 33 -22.5 50t-54.5 17h-158q-19 0 -36 3q-16 -32 -16 -66zM164 366q0 -92 112 -92t112 92q0 91 -112 91t-112 -91z" />
<glyph horiz-adv-x="267" d="M-66 -127q31 -9 64 -9q73 0 73 79v577h125v-577q0 -83 -48 -124.5t-133 -41.5q-44 0 -81 17v79zM58 663q0 32 21.5 53.5t53.5 21.5q33 0 54.5 -21.5t21.5 -53.5t-21.5 -53.5t-54.5 -21.5q-32 0 -53.5 21.5t-21.5 53.5z" />
<glyph horiz-adv-x="387" d="M20 435v85h111v140h125v-140h111v-85h-111v-435h-125v435h-111z" />
<glyph horiz-adv-x="534" d="M58 663q0 32 21.5 53.5t53.5 21.5q33 0 54.5 -21.5t21.5 -53.5t-21.5 -53.5t-54.5 -21.5q-32 0 -53.5 21.5t-21.5 53.5zM71 0v520h125v-520h-125zM201 -127q31 -9 64 -9q73 0 73 79v577h125v-577q0 -83 -48 -124.5t-133 -41.5q-44 0 -81 17v79zM325 663q0 32 21.5 53.5 t53.5 21.5q33 0 54.5 -21.5t21.5 -53.5t-21.5 -53.5t-54.5 -21.5q-32 0 -53.5 21.5t-21.5 53.5z" />
<glyph horiz-adv-x="595" d="M45 260q0 126 64.5 200.5t156.5 74.5q81 0 133 -61v46h125v-520h-125v53q-68 -68 -156 -68t-143 73.5t-55 201.5zM174 260q0 -90 31 -136t83 -46q63 0 111 46v276q-44 42 -103 42q-53 0 -87.5 -46.5t-34.5 -135.5zM187 583l102 157h152l-153 -157h-101z" />
<glyph horiz-adv-x="595" d="M45 260q0 126 64.5 200.5t156.5 74.5q81 0 133 -61v46h125v-520h-125v53q-68 -68 -156 -68t-143 73.5t-55 201.5zM150 740h85q0 -32 17.5 -54.5t51.5 -22.5t51.5 22.5t17.5 54.5h85q0 -83 -45 -125t-109 -42t-109 42t-45 125zM174 260q0 -90 31 -136t83 -46q63 0 111 46 v276q-44 42 -103 42q-53 0 -87.5 -46.5t-34.5 -135.5z" />
<glyph horiz-adv-x="595" d="M45 260q0 126 64.5 200.5t156.5 74.5q81 0 133 -61v46h125v-520h-125v53q-68 -68 -156 -68t-143 73.5t-55 201.5zM125 583l118 157h123l118 -157h-102l-78 79l-78 -79h-101zM174 260q0 -90 31 -136t83 -46q63 0 111 46v276q-44 42 -103 42q-53 0 -87.5 -46.5 t-34.5 -135.5z" />
<glyph horiz-adv-x="595" d="M45 260q0 126 64.5 200.5t156.5 74.5q81 0 133 -61v46h125v-520h-125v53q-68 -68 -156 -68t-143 73.5t-55 201.5zM134 663q0 31 21 52t52 21t52 -21t21 -52t-21 -51.5t-52 -20.5t-52 20.5t-21 51.5zM174 260q0 -90 31 -136t83 -46q63 0 111 46v276q-44 42 -103 42 q-53 0 -87.5 -46.5t-34.5 -135.5zM337 663q0 31 21 52t52 21t52 -21t21 -52t-21 -51.5t-52 -20.5t-52 20.5t-21 51.5z" />
<glyph horiz-adv-x="595" d="M45 260q0 126 64.5 200.5t156.5 74.5q81 0 133 -61v46h125v-520h-125v53q-68 -68 -156 -68t-143 73.5t-55 201.5zM127 740h152l102 -157h-102zM174 260q0 -90 31 -136t83 -46q63 0 111 46v276q-44 42 -103 42q-53 0 -87.5 -46.5t-34.5 -135.5z" />
<glyph horiz-adv-x="595" d="M45 260q0 126 64.5 200.5t156.5 74.5q81 0 133 -61v46h125v-520h-125v53q-68 -68 -156 -68t-143 73.5t-55 201.5zM150 612v86h308v-86h-308zM174 260q0 -90 31 -136t83 -46q63 0 111 46v276q-44 42 -103 42q-53 0 -87.5 -46.5t-34.5 -135.5z" />
<glyph horiz-adv-x="595" d="M45 260q0 126 64.5 200.5t156.5 74.5q81 0 133 -61v46h125v-520h-1q-116 -60 -116 -129q0 -21 14 -33t32 -12q32 0 70 20v-70q-42 -24 -104 -24q-52 0 -82 29t-30 72q0 84 109 147h-17v53q-68 -68 -156 -68t-143 73.5t-55 201.5zM174 260q0 -90 31 -136t83 -46 q63 0 111 46v276q-44 42 -103 42q-53 0 -87.5 -46.5t-34.5 -135.5z" />
<glyph horiz-adv-x="595" d="M45 260q0 126 64.5 200.5t156.5 74.5q81 0 133 -61v46h125v-520h-125v53q-68 -68 -156 -68t-143 73.5t-55 201.5zM174 260q0 -90 31 -136t83 -46q63 0 111 46v276q-44 42 -103 42q-53 0 -87.5 -46.5t-34.5 -135.5zM182 660q0 45 34.5 72t87.5 27t87.5 -27t34.5 -72 t-35 -71.5t-87 -26.5t-87 26.5t-35 71.5zM278 645q17 -28 45 -12q27 15 7 43q-17 27 -45 11q-26 -15 -7 -42z" />
<glyph horiz-adv-x="595" d="M45 260q0 126 64.5 200.5t156.5 74.5q81 0 133 -61v46h125v-520h-125v53q-68 -68 -156 -68t-143 73.5t-55 201.5zM120 622q19 50 50.5 76.5t65.5 26.5q31 0 77.5 -22t59.5 -22q29 0 48 41l67 -32q-18 -49 -49.5 -76t-65.5 -27q-31 0 -77 22t-60 22q-28 0 -49 -41z M174 260q0 -90 31 -136t83 -46q63 0 111 46v276q-44 42 -103 42q-53 0 -87.5 -46.5t-34.5 -135.5z" />
<glyph horiz-adv-x="598" d="M25 -74q0 69 77 123q-39 25 -39 83q0 53 48 107q-67 45 -67 127q0 81 65 125t167 44q59 0 107 -15h181v-85h-71q15 -30 15 -69q0 -82 -65 -126t-167 -44q-56 0 -104 14q-7 -18 -7 -36q0 -43 46 -43h158q86 0 133.5 -39.5t47.5 -105.5q0 -88 -83 -148.5t-203 -60.5 q-116 0 -177.5 39t-61.5 110zM127 740h85q0 -32 17.5 -54.5t51.5 -22.5t51.5 22.5t17.5 54.5h85q0 -83 -45 -125t-109 -42t-109 42t-45 125zM139 -36q0 -52 36 -79t103 -27q69 0 108.5 27.5t39.5 74.5q0 33 -22.5 50t-54.5 17h-158q-19 0 -36 3q-16 -32 -16 -66zM164 366 q0 -92 112 -92t112 92q0 91 -112 91t-112 -91z" />
<glyph horiz-adv-x="598" d="M25 -74q0 69 77 123q-39 25 -39 83q0 53 48 107q-67 45 -67 127q0 81 65 125t167 44q59 0 107 -15h181v-85h-71q15 -30 15 -69q0 -82 -65 -126t-167 -44q-56 0 -104 14q-7 -18 -7 -36q0 -43 46 -43h158q86 0 133.5 -39.5t47.5 -105.5q0 -88 -83 -148.5t-203 -60.5 q-116 0 -177.5 39t-61.5 110zM102 583l118 157h123l118 -157h-102l-78 79l-78 -79h-101zM139 -36q0 -52 36 -79t103 -27q69 0 108.5 27.5t39.5 74.5q0 33 -22.5 50t-54.5 17h-158q-19 0 -36 3q-16 -32 -16 -66zM164 366q0 -92 112 -92t112 92q0 91 -112 91t-112 -91z" />
<glyph horiz-adv-x="598" d="M25 -74q0 69 77 123q-39 25 -39 83q0 53 48 107q-67 45 -67 127q0 81 65 125t167 44q59 0 107 -15h181v-85h-71q15 -30 15 -69q0 -82 -65 -126t-167 -44q-56 0 -104 14q-7 -18 -7 -36q0 -43 46 -43h158q86 0 133.5 -39.5t47.5 -105.5q0 -88 -83 -148.5t-203 -60.5 q-116 0 -177.5 39t-61.5 110zM139 -36q0 -52 36 -79t103 -27q69 0 108.5 27.5t39.5 74.5q0 33 -22.5 50t-54.5 17h-158q-19 0 -36 3q-16 -32 -16 -66zM164 366q0 -92 112 -92t112 92q0 91 -112 91t-112 -91zM213 582l48 189h86l-20 -189h-114z" />
<glyph horiz-adv-x="598" d="M25 -74q0 69 77 123q-39 25 -39 83q0 53 48 107q-67 45 -67 127q0 81 65 125t167 44q59 0 107 -15h181v-85h-71q15 -30 15 -69q0 -82 -65 -126t-167 -44q-56 0 -104 14q-7 -18 -7 -36q0 -43 46 -43h158q86 0 133.5 -39.5t47.5 -105.5q0 -88 -83 -148.5t-203 -60.5 q-116 0 -177.5 39t-61.5 110zM139 -36q0 -52 36 -79t103 -27q69 0 108.5 27.5t39.5 74.5q0 33 -22.5 50t-54.5 17h-158q-19 0 -36 3q-16 -32 -16 -66zM164 366q0 -92 112 -92t112 92q0 91 -112 91t-112 -91zM205 663q0 32 21.5 53.5t54.5 21.5q32 0 54 -21.5t22 -53.5 t-22 -53.5t-54 -21.5q-33 0 -54.5 21.5t-21.5 53.5z" />
<glyph horiz-adv-x="267" d="M58 663q0 32 21.5 53.5t53.5 21.5q33 0 54.5 -21.5t21.5 -53.5t-21.5 -53.5t-54.5 -21.5q-32 0 -53.5 21.5t-21.5 53.5zM71 0v520h125v-520h-125z" />
<glyph horiz-adv-x="267" d="M-66 -127q31 -9 64 -9q73 0 73 79v577h125v-577q0 -83 -48 -124.5t-133 -41.5q-44 0 -81 17v79zM-45 583l118 157h123l118 -157h-102l-78 79l-78 -79h-101z" />
<glyph horiz-adv-x="387" d="M20 435v85h111v140h125v-140h111v-85h-111v-97h91v-86h-91v-252h-125v252h-91v86h91v97h-111z" />
<glyph horiz-adv-x="387" d="M20 435v85h111v140h125v-140h111v-85h-111v-435h-125v435h-111zM306 574v229h110l-24 -229h-86z" />
<glyph horiz-adv-x="387" d="M20 435v85h111v140h125v-140h111v-85h-111v-435h-17l-48 -64q45 2 78 -19t33 -65q0 -47 -38 -73.5t-92 -26.5q-43 0 -72 14v59q27 -13 64 -13q20 0 34.5 9t14.5 27q0 17 -14.5 26t-34.5 9q-21 0 -39 -6l-22 39l63 84h-35v435h-111z" />
<glyph horiz-adv-x="387" d="M20 435v85h111v140h125v-140h111v-85h-111v-435h-125v435h-111zM116 -248l20 189h114l-48 -189h-86z" />
<glyph horiz-adv-x="550" d="M10 0l198 543h118l214 -543h-132l-44 127h-195l-42 -127h-117zM198 216h134l-31 90l-38 119l-36 -119z" />
<glyph horiz-adv-x="567" d="M81 0v543h206q92 0 152 -34.5t60 -109.5q0 -40 -23.5 -71t-63.5 -43q51 -10 80.5 -43.5t29.5 -84.5q0 -78 -61 -117.5t-156 -39.5h-224zM204 84h101q93 0 93 74q0 75 -93 75h-101v-149zM204 315h83q89 0 89 74q0 70 -89 70h-83v-144z" />
<glyph horiz-adv-x="579" d="M45 271q0 130 69.5 208t186.5 78q97 0 162.5 -51t74.5 -148h-126q-8 57 -35 83.5t-76 26.5q-61 0 -93 -51.5t-32 -145.5t32 -145.5t93 -51.5q49 0 76 26.5t35 83.5h126q-9 -97 -74.5 -148t-162.5 -51q-117 0 -186.5 78t-69.5 208z" />
<glyph horiz-adv-x="614" d="M81 0v543h189q137 0 218 -72t81 -200q0 -127 -81 -199t-218 -72h-189zM204 89h66q169 0 169 182q0 94 -45 138.5t-124 44.5h-66v-365z" />
<glyph horiz-adv-x="495" d="M81 0v543h359v-89h-236v-126h220v-89h-220v-150h236v-89h-359z" />
<glyph horiz-adv-x="467" d="M81 0v543h350v-89h-227v-140h211v-89h-211v-225h-123z" />
<glyph horiz-adv-x="595" d="M45 271q0 130 69.5 208t186.5 78q96 0 160.5 -48t73.5 -136h-126q-16 95 -108 95q-61 0 -93 -51.5t-32 -145.5q0 -197 125 -197q64 0 115 47v71h-114v85h230v-277h-116v48q-25 -27 -66.5 -45t-82.5 -18q-108 0 -165 77t-57 209z" />
<glyph horiz-adv-x="642" d="M81 0v543h123v-215h234v215h123v-543h-123v239h-234v-239h-123z" />
<glyph horiz-adv-x="285" d="M81 0v543h123v-543h-123z" />
<glyph horiz-adv-x="512" d="M30 186h128q3 -61 23.5 -86t57.5 -25q79 0 79 88v380h123v-364q0 -94 -58.5 -144t-143.5 -50q-90 0 -148 47t-61 154z" />
<glyph horiz-adv-x="565" d="M81 0v543h123v-250l184 250h124l-190 -247l222 -296h-148l-192 273v-273h-123z" />
<glyph horiz-adv-x="474" d="M88 0v543h123v-454h212v-89h-335z" />
<glyph horiz-adv-x="733" d="M81 0v543h132l156 -379l158 379h125v-543h-115v229l2 114l-120 -297h-103l-125 306l2 -123v-229h-112z" />
<glyph horiz-adv-x="632" d="M81 0v543h117l244 -375l-2 123v252h111v-543h-117l-243 374l2 -122v-252h-112z" />
<glyph horiz-adv-x="629" d="M45 271q0 129 75 207.5t195 78.5t194.5 -79t74.5 -207t-74.5 -207t-194.5 -79t-195 78.5t-75 207.5zM176 271q0 -92 37.5 -144.5t101.5 -52.5t101.5 52.5t37.5 144.5t-37.5 144.5t-101.5 52.5t-101.5 -52.5t-37.5 -144.5z" />
<glyph horiz-adv-x="534" d="M81 0v543h200q89 0 151 -48t62 -135t-62 -134.5t-151 -47.5h-77v-178h-123zM204 265h77q89 0 89 95q0 50 -24.5 73t-64.5 23h-77v-191z" />
<glyph horiz-adv-x="629" d="M45 271q0 129 75 207.5t195 78.5t194.5 -79t74.5 -207q0 -88 -36 -154t-101 -101l124 -133h-148l-91 102h-17q-120 0 -195 78.5t-75 207.5zM176 271q0 -92 37.5 -144.5t101.5 -52.5t101.5 52.5t37.5 144.5t-37.5 144.5t-101.5 52.5t-101.5 -52.5t-37.5 -144.5z" />
<glyph horiz-adv-x="629" d="M45 271q0 129 75 207.5t195 78.5t194.5 -79t74.5 -207t-74.5 -207t-194.5 -79t-195 78.5t-75 207.5zM176 271q0 -92 37.5 -144.5t101.5 -52.5t101.5 52.5t37.5 144.5t-37.5 144.5t-101.5 52.5t-101.5 -52.5t-37.5 -144.5zM212 -46h304v-89h-304v89z" />
<glyph horiz-adv-x="547" d="M81 0v543h195q89 0 151 -46t62 -130q0 -115 -114 -156l146 -211h-140l-124 195h-53v-195h-123zM204 278h72q90 0 90 89t-90 89h-72v-178z" />
<glyph horiz-adv-x="547" d="M51 163h124q4 -46 33.5 -69t74.5 -23q40 0 69 19t29 55t-32.5 53.5t-90.5 28.5q-31 6 -48 9.5t-44.5 12t-43.5 20t-33 28.5t-24.5 41.5t-7.5 55.5q0 73 58.5 118t148.5 45q104 0 162 -44t64 -127h-124q-4 42 -31 63.5t-71 21.5q-39 0 -65 -17.5t-26 -50.5q0 -25 19 -41.5 t40.5 -22.5t61.5 -14q36 -7 57 -12t52.5 -17.5t48.5 -28.5t30.5 -44.5t13.5 -65.5q0 -74 -63 -123t-150 -49q-106 0 -167 45.5t-65 132.5z" />
<glyph horiz-adv-x="470" d="M30 454v89h410v-89h-143v-454h-124v454h-143z" />
<glyph horiz-adv-x="620" d="M76 190v353h124v-338q0 -130 114 -130q59 0 88.5 32t29.5 83v353h112v-338q0 -103 -64 -161.5t-166 -58.5q-109 0 -173.5 53.5t-64.5 151.5z" />
<glyph horiz-adv-x="550" d="M10 543h132l101 -277l44 -132l42 132l94 277h117l-199 -543h-117z" />
<glyph horiz-adv-x="783" d="M10 543h131l70 -259l32 -127l31 127l72 259h107l77 -259l35 -128l30 128l62 259h116l-153 -543h-110l-78 257l-35 130l-30 -130l-73 -257h-118z" />
<glyph horiz-adv-x="517" d="M17 543h134l106 -175l107 175h119l-167 -256l186 -287h-134l-116 190l-116 -190h-118l175 270z" />
<glyph horiz-adv-x="537" d="M29 543h132l120 -244l114 244h114l-176 -344v-199h-123v208z" />
<glyph horiz-adv-x="457" d="M40 0v89l245 365h-241v89h373v-89l-245 -365h245v-89h-377z" />
<glyph horiz-adv-x="810" d="M10 0l373 543h373v-89h-236v-126h220v-89h-220v-150h236v-89h-360v127h-171l-83 -127h-132zM282 216h114v184l-59 -100z" />
<glyph horiz-adv-x="614" d="M6 224v91h75v228h189q137 0 218 -72t81 -200q0 -127 -81 -199t-218 -72h-189v224h-75zM204 89h66q169 0 169 182q0 94 -45 138.5t-124 44.5h-66v-139h101v-91h-101v-135z" />
<glyph horiz-adv-x="798" d="M81 0v543h123v-543h-123zM315 186h128q3 -61 23.5 -86t57.5 -25q79 0 79 88v380h123v-364q0 -94 -58.5 -144t-143.5 -50q-90 0 -148 47t-61 154z" />
<glyph horiz-adv-x="632" d="M81 0v543h117l244 -375l-2 123v252h111v-543q0 -93 -51 -133t-132 -40q-50 0 -80 14v86q37 -10 71 -10q81 0 81 74l-249 383l2 -122v-252h-112z" />
<glyph horiz-adv-x="629" d="M45 271q0 129 75 207.5t195 78.5q48 0 87 -13l38 68h128l-69 -124q85 -79 85 -217q0 -128 -74.5 -207t-194.5 -79q-49 0 -88 13l-38 -68h-128l69 124q-85 79 -85 217zM176 271q0 -59 16 -104l164 295q-18 6 -41 6q-64 0 -101.5 -52.5t-37.5 -144.5zM273 81q18 -7 42 -7 q64 0 101.5 52.5t37.5 144.5q0 60 -17 105z" />
<glyph horiz-adv-x="812" d="M45 272q0 127 81 199t218 72h414v-89h-237v-126h221v-89h-221v-150h237v-89h-414q-137 0 -218 72t-81 200zM176 272q0 -94 44.5 -138.5t123.5 -44.5h54v365h-54q-79 0 -123.5 -44.5t-44.5 -137.5z" />
<glyph horiz-adv-x="534" d="M81 0v543h123v-81h77q89 0 151 -47.5t62 -134.5q0 -88 -62 -135.5t-151 -47.5h-77v-97h-123zM204 184h77q40 0 64.5 23t24.5 73q0 49 -24.5 72t-64.5 23h-77v-191z" />
<glyph horiz-adv-x="606" d="M76 0v296q0 121 70.5 184t183.5 63h198v-89l-107 -145q41 -11 71 -32.5t44 -47t20 -47.5t6 -43q0 -74 -51.5 -114t-120.5 -40q-72 0 -112.5 35.5t-41.5 101.5h104q6 -56 54 -56q25 0 39 19t14 52q0 42 -32.5 69.5t-92.5 27.5h-22v87l98 133h-72q-59 0 -93 -33t-34 -115 v-306h-123z" />
<glyph horiz-adv-x="550" d="M10 0l198 543h118l214 -543h-132l-44 127h-195l-42 -127h-117zM175 582l106 111h143l-150 -111h-99zM198 216h134l-31 90l-38 119l-36 -119z" />
<glyph horiz-adv-x="550" d="M10 0l198 543h118l214 -543h-132l-44 127h-195l-42 -127h-117zM125 693h82q0 -40 58 -40q56 0 56 40h83q0 -58 -39.5 -88t-99.5 -30q-61 0 -100.5 30t-39.5 88zM198 216h134l-31 90l-38 119l-36 -119z" />
<glyph horiz-adv-x="550" d="M10 0l198 543h118l214 -543h-132l-44 127h-195l-42 -127h-117zM91 582l125 111h97l125 -111h-104l-70 40l-69 -40h-104zM198 216h134l-31 90l-38 119l-36 -119z" />
<glyph horiz-adv-x="550" d="M10 0l198 543h118l214 -543h-132l-44 127h-195l-42 -127h-117zM113 644q0 25 18.5 41.5t44.5 16.5q27 0 45.5 -16.5t18.5 -41.5q0 -26 -18.5 -42.5t-45.5 -16.5q-26 0 -44.5 16.5t-18.5 42.5zM198 216h134l-31 90l-38 119l-36 -119zM291 644q0 25 18 41.5t45 16.5 t45 -16.5t18 -41.5q0 -26 -18 -42.5t-45 -16.5t-45 16.5t-18 42.5z" />
<glyph horiz-adv-x="550" d="M10 0l198 543h118l214 -543h-132l-44 127h-195l-42 -127h-117zM115 693h144l105 -111h-100zM198 216h134l-31 90l-38 119l-36 -119z" />
<glyph horiz-adv-x="550" d="M10 0l198 543h118l214 -543h-132l-44 127h-195l-42 -127h-117zM132 598v78h266v-78h-266zM198 216h134l-31 90l-38 119l-36 -119z" />
<glyph horiz-adv-x="550" d="M10 0l198 543h118l214 -543h-1q-116 -60 -116 -129q0 -21 14 -33t32 -12q32 0 70 20v-70q-42 -24 -104 -24q-52 0 -82 29t-30 72q0 84 109 147h-24l-44 127h-195l-42 -127h-117zM198 216h134l-31 90l-38 119l-36 -119z" />
<glyph horiz-adv-x="550" d="M10 0l198 543h118l214 -543h-132l-44 127h-195l-42 -127h-117zM167 638q0 35 28 56.5t71 21.5q44 0 72 -21t28 -57q0 -35 -28 -56t-72 -21q-43 0 -71 21t-28 56zM198 216h134l-31 90l-38 119l-36 -119zM234 638q0 -13 9 -21.5t23 -8.5q15 0 24 8t9 22t-9 22.5t-24 8.5 q-14 0 -23 -8.5t-9 -22.5z" />
<glyph horiz-adv-x="550" d="M10 0l198 543h118l214 -543h-132l-44 127h-195l-42 -127h-117zM103 617q31 81 96 81q24 0 68 -15t58 -15q21 0 36 27l64 -29q-30 -81 -95 -81q-25 0 -69 15t-58 15q-20 0 -37 -27zM198 216h134l-31 90l-38 119l-36 -119z" />
<glyph horiz-adv-x="579" d="M45 271q0 130 69.5 208t186.5 78q97 0 162.5 -51t74.5 -148h-126q-8 57 -35 83.5t-76 26.5q-61 0 -93 -51.5t-32 -145.5t32 -145.5t93 -51.5q49 0 76 26.5t35 83.5h126q-9 -97 -74.5 -148t-162.5 -51q-117 0 -186.5 78t-69.5 208zM192 582l106 111h143l-150 -111h-99z " />
<glyph horiz-adv-x="579" d="M45 271q0 130 69.5 208t186.5 78q97 0 162.5 -51t74.5 -148h-126q-8 57 -35 83.5t-76 26.5q-61 0 -93 -51.5t-32 -145.5t32 -145.5t93 -51.5q49 0 76 26.5t35 83.5h126q-9 -97 -74.5 -148t-162.5 -51q-117 0 -186.5 78t-69.5 208zM118 693h104l69 -40l70 40h104 l-125 -111h-97z" />
<glyph horiz-adv-x="579" d="M45 271q0 130 69.5 208t186.5 78q97 0 162.5 -51t74.5 -148h-126q-8 57 -35 83.5t-76 26.5q-61 0 -93 -51.5t-32 -145.5t32 -145.5t93 -51.5q49 0 76 26.5t35 83.5h126q-8 -89 -65 -140t-144 -58l-38 -50q45 2 78 -19t33 -65q0 -47 -38 -73.5t-92 -26.5q-43 0 -72 14v59 q27 -13 64 -13q20 0 34.5 9t14.5 27q0 17 -14.5 26t-34.5 9q-21 0 -39 -6l-22 39l54 72q-98 15 -155 91t-57 192z" />
<glyph horiz-adv-x="579" d="M45 271q0 130 69.5 208t186.5 78q97 0 162.5 -51t74.5 -148h-126q-8 57 -35 83.5t-76 26.5q-61 0 -93 -51.5t-32 -145.5t32 -145.5t93 -51.5q49 0 76 26.5t35 83.5h126q-9 -97 -74.5 -148t-162.5 -51q-117 0 -186.5 78t-69.5 208zM118 582l125 111h97l125 -111h-104 l-70 40l-69 -40h-104z" />
<glyph horiz-adv-x="579" d="M45 271q0 130 69.5 208t186.5 78q97 0 162.5 -51t74.5 -148h-126q-8 57 -35 83.5t-76 26.5q-61 0 -93 -51.5t-32 -145.5t32 -145.5t93 -51.5q49 0 76 26.5t35 83.5h126q-9 -97 -74.5 -148t-162.5 -51q-117 0 -186.5 78t-69.5 208zM226 643q0 26 19 43t46 17t46 -17 t19 -43t-19 -42.5t-46 -16.5t-46 16.5t-19 42.5z" />
<glyph horiz-adv-x="614" d="M81 0v543h189q137 0 218 -72t81 -200q0 -127 -81 -199t-218 -72h-189zM101 693h104l69 -40l70 40h104l-125 -111h-97zM204 89h66q169 0 169 182q0 94 -45 138.5t-124 44.5h-66v-365z" />
<glyph horiz-adv-x="614" d="M6 224v91h75v228h189q137 0 218 -72t81 -200q0 -127 -81 -199t-218 -72h-189v224h-75zM204 89h66q169 0 169 182q0 94 -45 138.5t-124 44.5h-66v-139h101v-91h-101v-135z" />
<glyph horiz-adv-x="495" d="M81 0v543h359v-89h-236v-126h220v-89h-220v-150h236v-89h-359zM145 582l106 111h143l-150 -111h-99z" />
<glyph horiz-adv-x="495" d="M81 0v543h359v-89h-236v-126h220v-89h-220v-150h236v-89h-359zM116 693h82q0 -40 58 -40q56 0 56 40h83q0 -58 -39.5 -88t-99.5 -30q-61 0 -100.5 30t-39.5 88z" />
<glyph horiz-adv-x="495" d="M81 0v543h359v-89h-236v-126h220v-89h-220v-150h236v-89h-359zM82 693h104l69 -40l70 40h104l-125 -111h-97z" />
<glyph horiz-adv-x="495" d="M81 0v543h359v-89h-236v-126h220v-89h-220v-150h236v-89h-359zM82 582l125 111h97l125 -111h-104l-70 40l-69 -40h-104z" />
<glyph horiz-adv-x="495" d="M81 0v543h359v-89h-236v-126h220v-89h-220v-150h236v-89h-359zM104 644q0 25 18.5 41.5t44.5 16.5q27 0 45.5 -16.5t18.5 -41.5q0 -26 -18.5 -42.5t-45.5 -16.5q-26 0 -44.5 16.5t-18.5 42.5zM282 644q0 25 18 41.5t45 16.5t45 -16.5t18 -41.5q0 -26 -18 -42.5t-45 -16.5 t-45 16.5t-18 42.5z" />
<glyph horiz-adv-x="495" d="M81 0v543h359v-89h-236v-126h220v-89h-220v-150h236v-89h-359zM190 643q0 26 19 43t46 17t46 -17t19 -43t-19 -42.5t-46 -16.5t-46 16.5t-19 42.5z" />
<glyph horiz-adv-x="495" d="M81 0v543h359v-89h-236v-126h220v-89h-220v-150h236v-89h-359zM106 693h144l105 -111h-100z" />
<glyph horiz-adv-x="495" d="M81 0v543h359v-89h-236v-126h220v-89h-220v-150h236v-89h-359zM122 598v78h266v-78h-266z" />
<glyph horiz-adv-x="495" d="M81 0v543h359v-89h-236v-126h220v-89h-220v-150h236v-89h-1q-116 -60 -116 -129q0 -21 14 -33t32 -12q32 0 70 20v-70q-42 -24 -104 -24q-52 0 -82 29t-30 72q0 84 109 147h-251z" />
<glyph horiz-adv-x="595" d="M45 271q0 130 69.5 208t186.5 78q96 0 160.5 -48t73.5 -136h-126q-16 95 -108 95q-61 0 -93 -51.5t-32 -145.5q0 -197 125 -197q64 0 115 47v71h-114v85h230v-277h-116v48q-25 -27 -66.5 -45t-82.5 -18q-108 0 -165 77t-57 209zM155 693h82q0 -40 58 -40q56 0 56 40h83 q0 -58 -39.5 -88t-99.5 -30q-61 0 -100.5 30t-39.5 88z" />
<glyph horiz-adv-x="595" d="M45 271q0 130 69.5 208t186.5 78q96 0 160.5 -48t73.5 -136h-126q-16 95 -108 95q-61 0 -93 -51.5t-32 -145.5q0 -197 125 -197q64 0 115 47v71h-114v85h230v-277h-116v48q-25 -27 -66.5 -45t-82.5 -18q-108 0 -165 77t-57 209zM121 582l125 111h97l125 -111h-104l-70 40 l-69 -40h-104z" />
<glyph horiz-adv-x="595" d="M45 271q0 130 69.5 208t186.5 78q96 0 160.5 -48t73.5 -136h-126q-16 95 -108 95q-61 0 -93 -51.5t-32 -145.5q0 -197 125 -197q64 0 115 47v71h-114v85h230v-277h-116v48q-25 -27 -66.5 -45t-82.5 -18q-108 0 -165 77t-57 209zM227 -248l20 189h114l-48 -189h-86z" />
<glyph horiz-adv-x="595" d="M45 271q0 130 69.5 208t186.5 78q96 0 160.5 -48t73.5 -136h-126q-16 95 -108 95q-61 0 -93 -51.5t-32 -145.5q0 -197 125 -197q64 0 115 47v71h-114v85h230v-277h-116v48q-25 -27 -66.5 -45t-82.5 -18q-108 0 -165 77t-57 209zM229 643q0 26 19 43t46 17t46 -17t19 -43 t-19 -42.5t-46 -16.5t-46 16.5t-19 42.5z" />
<glyph horiz-adv-x="642" d="M30 379v89h51v75h123v-75h234v75h123v-75h51v-89h-51v-379h-123v221h-234v-221h-123v379h-51zM204 310h234v69h-234v-69z" />
<glyph horiz-adv-x="642" d="M81 0v543h123v-215h234v215h123v-543h-123v239h-234v-239h-123zM147 582l125 111h97l125 -111h-104l-70 40l-69 -40h-104z" />
<glyph horiz-adv-x="285" d="M57 582l106 111h143l-150 -111h-99zM81 0v543h123v-543h-123z" />
<glyph horiz-adv-x="285" d="M4 693h82q0 -40 58 -40q56 0 56 40h83q0 -58 -39.5 -88t-99.5 -30q-61 0 -100.5 30t-39.5 88zM81 0v543h123v-543h-123z" />
<glyph horiz-adv-x="285" d="M-30 582l125 111h97l125 -111h-104l-70 40l-69 -40h-104zM81 0v543h123v-543h-123z" />
<glyph horiz-adv-x="285" d="M-1 644q0 25 18.5 41.5t45.5 16.5q26 0 44.5 -16.5t18.5 -41.5q0 -26 -18.5 -42.5t-44.5 -16.5q-27 0 -45.5 16.5t-18.5 42.5zM81 0v543h123v-543h-123zM160 644q0 25 18.5 41.5t44.5 16.5q27 0 45.5 -16.5t18.5 -41.5q0 -26 -18.5 -42.5t-45.5 -16.5q-26 0 -44.5 16.5 t-18.5 42.5z" />
<glyph horiz-adv-x="285" d="M-24 693h144l105 -111h-100zM81 0v543h123v-543h-123z" />
<glyph horiz-adv-x="285" d="M11 598v78h266v-78h-266zM81 0v543h123v-543h-123z" />
<glyph horiz-adv-x="285" d="M-11 -147q0 84 109 147h-17v543h123v-543h1q-116 -60 -116 -129q0 -21 14 -33t32 -12q32 0 70 20v-70q-42 -24 -104 -24q-52 0 -82 29t-30 72z" />
<glyph horiz-adv-x="285" d="M-17 617q31 81 96 81q24 0 68 -15t58 -15q21 0 36 27l64 -29q-30 -81 -95 -81q-25 0 -69 15t-58 15q-20 0 -37 -27zM81 0v543h123v-543h-123z" />
<glyph horiz-adv-x="512" d="M30 186h128q3 -61 23.5 -86t57.5 -25q79 0 79 88v380h123v-364q0 -94 -58.5 -144t-143.5 -50q-90 0 -148 47t-61 154zM206 582l125 111h97l125 -111h-104l-70 40l-69 -40h-104z" />
<glyph horiz-adv-x="565" d="M81 0v543h123v-250l184 250h124l-190 -247l222 -296h-148l-192 273v-273h-123zM200 -248l20 189h114l-48 -189h-86z" />
<glyph horiz-adv-x="474" d="M69 582l106 111h143l-150 -111h-99zM88 0v543h123v-454h212v-89h-335z" />
<glyph horiz-adv-x="474" d="M88 0v543h123v-454h212v-89h-335zM266 373v229h110l-24 -229h-86z" />
<glyph horiz-adv-x="474" d="M88 0v543h123v-454h212v-89h-335zM174 -248l20 189h114l-48 -189h-86z" />
<glyph horiz-adv-x="474" d="M88 0v543h123v-454h212v-89h-335zM260 279q0 26 19 43t46 17t46 -17t19 -43t-19 -42.5t-46 -16.5t-46 16.5t-19 42.5z" />
<glyph horiz-adv-x="474" d="M25 149v100l63 36v258h123v-188l104 60v-100l-104 -60v-166h212v-89h-335v185z" />
<glyph horiz-adv-x="632" d="M81 0v543h117l244 -375l-2 123v252h111v-543h-117l-243 374l2 -122v-252h-112zM217 582l106 111h143l-150 -111h-99z" />
<glyph horiz-adv-x="632" d="M81 0v543h117l244 -375l-2 123v252h111v-543h-117l-243 374l2 -122v-252h-112zM138 693h104l69 -40l70 40h104l-125 -111h-97z" />
<glyph horiz-adv-x="632" d="M81 0v543h117l244 -375l-2 123v252h111v-543h-117l-243 374l2 -122v-252h-112zM254 -248l20 189h114l-48 -189h-86z" />
<glyph horiz-adv-x="632" d="M81 0v543h117l244 -375l-2 123v252h111v-543h-117l-243 374l2 -122v-252h-112zM150 617q32 81 96 81q24 0 68 -15t58 -15q21 0 36 27l64 -29q-30 -81 -95 -81q-25 0 -69 15t-58 15q-20 0 -37 -27z" />
<glyph horiz-adv-x="629" d="M45 271q0 129 75 207.5t195 78.5t194.5 -79t74.5 -207t-74.5 -207t-194.5 -79t-195 78.5t-75 207.5zM176 271q0 -92 37.5 -144.5t101.5 -52.5t101.5 52.5t37.5 144.5t-37.5 144.5t-101.5 52.5t-101.5 -52.5t-37.5 -144.5zM216 582l106 111h143l-150 -111h-99z" />
<glyph horiz-adv-x="629" d="M45 271q0 129 75 207.5t195 78.5t194.5 -79t74.5 -207t-74.5 -207t-194.5 -79t-195 78.5t-75 207.5zM175 693h82q0 -40 58 -40q56 0 56 40h83q0 -58 -39.5 -88t-99.5 -30q-61 0 -100.5 30t-39.5 88zM176 271q0 -92 37.5 -144.5t101.5 -52.5t101.5 52.5t37.5 144.5 t-37.5 144.5t-101.5 52.5t-101.5 -52.5t-37.5 -144.5z" />
<glyph horiz-adv-x="629" d="M45 271q0 129 75 207.5t195 78.5t194.5 -79t74.5 -207t-74.5 -207t-194.5 -79t-195 78.5t-75 207.5zM141 582l125 111h97l125 -111h-104l-70 40l-69 -40h-104zM176 271q0 -92 37.5 -144.5t101.5 -52.5t101.5 52.5t37.5 144.5t-37.5 144.5t-101.5 52.5t-101.5 -52.5 t-37.5 -144.5z" />
<glyph horiz-adv-x="629" d="M45 271q0 129 75 207.5t195 78.5t194.5 -79t74.5 -207t-74.5 -207t-194.5 -79t-195 78.5t-75 207.5zM163 644q0 25 18.5 41.5t44.5 16.5q27 0 45.5 -16.5t18.5 -41.5q0 -26 -18.5 -42.5t-45.5 -16.5q-26 0 -44.5 16.5t-18.5 42.5zM176 271q0 -92 37.5 -144.5t101.5 -52.5 t101.5 52.5t37.5 144.5t-37.5 144.5t-101.5 52.5t-101.5 -52.5t-37.5 -144.5zM341 644q0 25 18 41.5t45 16.5t45 -16.5t18 -41.5q0 -26 -18 -42.5t-45 -16.5t-45 16.5t-18 42.5z" />
<glyph horiz-adv-x="629" d="M45 271q0 129 75 207.5t195 78.5t194.5 -79t74.5 -207t-74.5 -207t-194.5 -79t-195 78.5t-75 207.5zM165 693h144l105 -111h-100zM176 271q0 -92 37.5 -144.5t101.5 -52.5t101.5 52.5t37.5 144.5t-37.5 144.5t-101.5 52.5t-101.5 -52.5t-37.5 -144.5z" />
<glyph horiz-adv-x="629" d="M45 271q0 129 75 207.5t195 78.5t194.5 -79t74.5 -207t-74.5 -207t-194.5 -79t-195 78.5t-75 207.5zM148 582l86 111h134l-126 -111h-94zM176 271q0 -92 37.5 -144.5t101.5 -52.5t101.5 52.5t37.5 144.5t-37.5 144.5t-101.5 52.5t-101.5 -52.5t-37.5 -144.5zM322 582 l85 111h135l-127 -111h-93z" />
<glyph horiz-adv-x="629" d="M45 271q0 129 75 207.5t195 78.5t194.5 -79t74.5 -207t-74.5 -207t-194.5 -79t-195 78.5t-75 207.5zM176 271q0 -92 37.5 -144.5t101.5 -52.5t101.5 52.5t37.5 144.5t-37.5 144.5t-101.5 52.5t-101.5 -52.5t-37.5 -144.5zM181 598v78h266v-78h-266z" />
<glyph horiz-adv-x="629" d="M45 271q0 129 75 207.5t195 78.5t194.5 -79t74.5 -207t-74.5 -207t-194.5 -79t-195 78.5t-75 207.5zM153 617q31 81 96 81q24 0 68 -15t58 -15q21 0 36 27l64 -29q-30 -81 -95 -81q-25 0 -69 15t-58 15q-20 0 -37 -27zM176 271q0 -92 37.5 -144.5t101.5 -52.5t101.5 52.5 t37.5 144.5t-37.5 144.5t-101.5 52.5t-101.5 -52.5t-37.5 -144.5z" />
<glyph horiz-adv-x="547" d="M81 0v543h195q89 0 151 -46t62 -130q0 -115 -114 -156l146 -211h-140l-124 195h-53v-195h-123zM151 582l106 111h143l-150 -111h-99zM204 278h72q90 0 90 89t-90 89h-72v-178z" />
<glyph horiz-adv-x="547" d="M81 0v543h195q89 0 151 -46t62 -130q0 -115 -114 -156l146 -211h-140l-124 195h-53v-195h-123zM85 693h104l69 -40l70 40h104l-125 -111h-97zM204 278h72q90 0 90 89t-90 89h-72v-178z" />
<glyph horiz-adv-x="547" d="M81 0v543h195q89 0 151 -46t62 -130q0 -115 -114 -156l146 -211h-140l-124 195h-53v-195h-123zM198 -248l20 189h114l-48 -189h-86zM204 278h72q90 0 90 89t-90 89h-72v-178z" />
<glyph horiz-adv-x="547" d="M51 163h124q4 -46 33.5 -69t74.5 -23q40 0 69 19t29 55t-32.5 53.5t-90.5 28.5q-31 6 -48 9.5t-44.5 12t-43.5 20t-33 28.5t-24.5 41.5t-7.5 55.5q0 73 58.5 118t148.5 45q104 0 162 -44t64 -127h-124q-4 42 -31 63.5t-71 21.5q-39 0 -65 -17.5t-26 -50.5q0 -25 19 -41.5 t40.5 -22.5t61.5 -14q36 -7 57 -12t52.5 -17.5t48.5 -28.5t30.5 -44.5t13.5 -65.5q0 -74 -63 -123t-150 -49q-106 0 -167 45.5t-65 132.5zM165 582l106 111h143l-150 -111h-99z" />
<glyph horiz-adv-x="547" d="M51 163h124q4 -46 33.5 -69t74.5 -23q40 0 69 19t29 55t-32.5 53.5t-90.5 28.5q-31 6 -48 9.5t-44.5 12t-43.5 20t-33 28.5t-24.5 41.5t-7.5 55.5q0 73 58.5 118t148.5 45q104 0 162 -44t64 -127h-124q-4 42 -31 63.5t-71 21.5q-39 0 -65 -17.5t-26 -50.5q0 -25 19 -41.5 t40.5 -22.5t61.5 -14q36 -7 57 -12t52.5 -17.5t48.5 -28.5t30.5 -44.5t13.5 -65.5q0 -74 -63 -123t-150 -49q-106 0 -167 45.5t-65 132.5zM93 693h104l69 -40l70 40h104l-125 -111h-97z" />
<glyph horiz-adv-x="547" d="M51 163h124q4 -46 33.5 -69t74.5 -23q40 0 69 19t29 55t-32.5 53.5t-90.5 28.5q-31 6 -48 9.5t-44.5 12t-43.5 20t-33 28.5t-24.5 41.5t-7.5 55.5q0 73 58.5 118t148.5 45q104 0 162 -44t64 -127h-124q-4 42 -31 63.5t-71 21.5q-39 0 -65 -17.5t-26 -50.5q0 -25 19 -41.5 t40.5 -22.5t61.5 -14q36 -7 57 -12t52.5 -17.5t48.5 -28.5t30.5 -44.5t13.5 -65.5q0 -74 -63 -123t-150 -49q-106 0 -167 45.5t-65 132.5zM197 -248l20 189h114l-48 -189h-86z" />
<glyph horiz-adv-x="547" d="M51 163h124q4 -46 33.5 -69t74.5 -23q40 0 69 19t29 55t-32.5 53.5t-90.5 28.5q-31 6 -48 9.5t-44.5 12t-43.5 20t-33 28.5t-24.5 41.5t-7.5 55.5q0 73 58.5 118t148.5 45q104 0 162 -44t64 -127h-124q-4 42 -31 63.5t-71 21.5q-39 0 -65 -17.5t-26 -50.5q0 -25 19 -41.5 t40.5 -22.5t61.5 -14q36 -7 57 -12t52.5 -17.5t48.5 -28.5t30.5 -44.5t13.5 -65.5q0 -74 -63 -123t-150 -49q-106 0 -167 45.5t-65 132.5zM93 582l125 111h97l125 -111h-104l-70 40l-69 -40h-104z" />
<glyph horiz-adv-x="547" d="M51 163h124q4 -46 33.5 -69t74.5 -23q40 0 69 19t29 55t-32.5 53.5t-90.5 28.5q-31 6 -48 9.5t-44.5 12t-43.5 20t-33 28.5t-24.5 41.5t-7.5 55.5q0 73 58.5 118t148.5 45q104 0 162 -44t64 -127h-124q-4 42 -31 63.5t-71 21.5q-39 0 -65 -17.5t-26 -50.5q0 -25 19 -41.5 t40.5 -22.5t61.5 -14q36 -7 57 -12t52.5 -17.5t48.5 -28.5t30.5 -44.5t13.5 -65.5q0 -69 -55 -116.5t-136 -54.5l-37 -50q45 2 78 -19t33 -65q0 -47 -38 -73.5t-92 -26.5q-43 0 -72 14v59q27 -13 64 -13q20 0 34.5 9t14.5 27q0 17 -14.5 26t-34.5 9q-21 0 -39 -6l-22 39 l54 72q-84 10 -132 54.5t-51 120.5z" />
<glyph horiz-adv-x="470" d="M30 454v89h410v-89h-143v-139h92v-91h-92v-224h-124v224h-92v91h92v139h-143z" />
<glyph horiz-adv-x="470" d="M30 454v89h410v-89h-143v-454h-124v454h-143zM62 693h104l69 -40l70 40h104l-125 -111h-97z" />
<glyph horiz-adv-x="470" d="M30 454v89h410v-89h-143v-454h-20l-48 -64q45 2 78 -19t33 -65q0 -47 -38 -73.5t-92 -26.5q-43 0 -72 14v59q27 -13 64 -13q20 0 34.5 9t14.5 27q0 17 -14.5 26t-34.5 9q-21 0 -39 -6l-22 39l63 84h-31v454h-143z" />
<glyph horiz-adv-x="470" d="M30 454v89h410v-89h-143v-454h-124v454h-143zM158 -248l20 189h114l-48 -189h-86z" />
<glyph horiz-adv-x="620" d="M76 190v353h124v-338q0 -130 114 -130q59 0 88.5 32t29.5 83v353h112v-338q0 -103 -64 -161.5t-166 -58.5q-109 0 -173.5 53.5t-64.5 151.5zM210 582l106 111h143l-150 -111h-99z" />
<glyph horiz-adv-x="620" d="M76 190v353h124v-338q0 -130 114 -130q59 0 88.5 32t29.5 83v353h112v-338q0 -103 -64 -161.5t-166 -58.5q-109 0 -173.5 53.5t-64.5 151.5zM170 693h82q0 -40 58 -40q56 0 56 40h83q0 -58 -39.5 -88t-99.5 -30q-61 0 -100.5 30t-39.5 88z" />
<glyph horiz-adv-x="620" d="M76 190v353h124v-338q0 -130 114 -130q59 0 88.5 32t29.5 83v353h112v-338q0 -103 -64 -161.5t-166 -58.5q-109 0 -173.5 53.5t-64.5 151.5zM136 582l125 111h97l125 -111h-104l-70 40l-69 -40h-104z" />
<glyph horiz-adv-x="620" d="M76 190v353h124v-338q0 -130 114 -130q59 0 88.5 32t29.5 83v353h112v-338q0 -103 -64 -161.5t-166 -58.5q-109 0 -173.5 53.5t-64.5 151.5zM158 644q0 25 18.5 41.5t44.5 16.5q27 0 45.5 -16.5t18.5 -41.5q0 -26 -18.5 -42.5t-45.5 -16.5q-26 0 -44.5 16.5t-18.5 42.5z M336 644q0 25 18 41.5t45 16.5t45 -16.5t18 -41.5q0 -26 -18 -42.5t-45 -16.5t-45 16.5t-18 42.5z" />
<glyph horiz-adv-x="620" d="M76 190v353h124v-338q0 -130 114 -130q59 0 88.5 32t29.5 83v353h112v-338q0 -103 -64 -161.5t-166 -58.5q-109 0 -173.5 53.5t-64.5 151.5zM161 693h144l105 -111h-100z" />
<glyph horiz-adv-x="620" d="M76 190v353h124v-338q0 -130 114 -130q59 0 88.5 32t29.5 83v353h112v-338q0 -103 -64 -161.5t-166 -58.5q-109 0 -173.5 53.5t-64.5 151.5zM143 582l86 111h134l-126 -111h-94zM317 582l85 111h135l-127 -111h-93z" />
<glyph horiz-adv-x="620" d="M76 190v353h124v-338q0 -130 114 -130q59 0 88.5 32t29.5 83v353h112v-338q0 -103 -64 -161.5t-166 -58.5q-109 0 -173.5 53.5t-64.5 151.5zM176 598v78h266v-78h-266z" />
<glyph horiz-adv-x="620" d="M76 190v353h124v-338q0 -130 114 -130q59 0 88.5 32t29.5 83v353h112v-338q0 -80 -41 -134.5t-110 -74.5q-108 -58 -108 -125q0 -21 14 -33t32 -12q32 0 70 20v-70q-42 -24 -104 -24q-52 0 -82 29t-30 72q0 75 88 134q-92 10 -144.5 62t-52.5 141z" />
<glyph horiz-adv-x="620" d="M76 190v353h124v-338q0 -130 114 -130q59 0 88.5 32t29.5 83v353h112v-338q0 -103 -64 -161.5t-166 -58.5q-109 0 -173.5 53.5t-64.5 151.5zM210 638q0 35 28 56.5t71 21.5q44 0 72 -21t28 -57q0 -35 -28 -56t-72 -21q-43 0 -71 21t-28 56zM277 638q0 -13 9 -21.5 t23 -8.5q15 0 24 8t9 22t-9 22.5t-24 8.5q-14 0 -23 -8.5t-9 -22.5z" />
<glyph horiz-adv-x="620" d="M76 190v353h124v-338q0 -130 114 -130q59 0 88.5 32t29.5 83v353h112v-338q0 -103 -64 -161.5t-166 -58.5q-109 0 -173.5 53.5t-64.5 151.5zM148 617q32 81 96 81q24 0 68 -15t58 -15q21 0 36 27l64 -29q-30 -81 -95 -81q-25 0 -69 15t-58 15q-20 0 -37 -27z" />
<glyph horiz-adv-x="783" d="M10 543h131l70 -259l32 -127l31 127l72 259h107l77 -259l35 -128l30 128l62 259h116l-153 -543h-110l-78 257l-35 130l-30 -130l-73 -257h-118zM302 582l106 111h143l-150 -111h-99z" />
<glyph horiz-adv-x="783" d="M10 543h131l70 -259l32 -127l31 127l72 259h107l77 -259l35 -128l30 128l62 259h116l-153 -543h-110l-78 257l-35 130l-30 -130l-73 -257h-118zM224 582l125 111h97l125 -111h-104l-70 40l-69 -40h-104z" />
<glyph horiz-adv-x="783" d="M10 543h131l70 -259l32 -127l31 127l72 259h107l77 -259l35 -128l30 128l62 259h116l-153 -543h-110l-78 257l-35 130l-30 -130l-73 -257h-118zM245 644q0 25 18.5 41.5t44.5 16.5q27 0 45.5 -16.5t18.5 -41.5q0 -26 -18.5 -42.5t-45.5 -16.5q-26 0 -44.5 16.5 t-18.5 42.5zM423 644q0 25 18 41.5t45 16.5t45 -16.5t18 -41.5q0 -26 -18 -42.5t-45 -16.5t-45 16.5t-18 42.5z" />
<glyph horiz-adv-x="783" d="M10 543h131l70 -259l32 -127l31 127l72 259h107l77 -259l35 -128l30 128l62 259h116l-153 -543h-110l-78 257l-35 130l-30 -130l-73 -257h-118zM237 693h144l105 -111h-100z" />
<glyph horiz-adv-x="537" d="M29 543h132l120 -244l114 244h114l-176 -344v-199h-123v208zM179 582l106 111h143l-150 -111h-99z" />
<glyph horiz-adv-x="537" d="M29 543h132l120 -244l114 244h114l-176 -344v-199h-123v208zM100 582l125 111h97l125 -111h-104l-70 40l-69 -40h-104z" />
<glyph horiz-adv-x="537" d="M29 543h132l120 -244l114 244h114l-176 -344v-199h-123v208zM122 644q0 25 18.5 41.5t44.5 16.5q27 0 45.5 -16.5t18.5 -41.5q0 -26 -18.5 -42.5t-45.5 -16.5q-26 0 -44.5 16.5t-18.5 42.5zM300 644q0 25 18 41.5t45 16.5t45 -16.5t18 -41.5q0 -26 -18 -42.5t-45 -16.5 t-45 16.5t-18 42.5z" />
<glyph horiz-adv-x="537" d="M29 543h132l120 -244l114 244h114l-176 -344v-199h-123v208zM110 693h144l105 -111h-100z" />
<glyph horiz-adv-x="457" d="M40 0v89l245 365h-241v89h373v-89l-245 -365h245v-89h-377zM129 582l106 111h143l-150 -111h-99z" />
<glyph horiz-adv-x="457" d="M40 0v89l245 365h-241v89h373v-89l-245 -365h245v-89h-377zM58 693h104l69 -40l70 40h104l-125 -111h-97z" />
<glyph horiz-adv-x="457" d="M40 0v89l245 365h-241v89h373v-89l-245 -365h245v-89h-377zM163 643q0 26 19 43t46 17t46 -17t19 -43t-19 -42.5t-46 -16.5t-46 16.5t-19 42.5z" />
<glyph horiz-adv-x="810" d="M10 0l373 543h373v-89h-236v-126h220v-89h-220v-150h236v-89h-360v127h-171l-83 -127h-132zM282 216h114v184l-59 -100zM394 582l106 111h143l-150 -111h-99z" />
<glyph horiz-adv-x="635" d="M20 435v85h85v73q0 83 46 124.5t128 41.5q54 0 88 -17v-79q-34 9 -61 9q-76 0 -76 -79v-73h334v-577q0 -83 -48 -124.5t-133 -41.5q-44 0 -81 17v79q32 -9 64 -9q73 0 73 79v492h-209v-435h-125v435h-85zM426 663q0 32 21.5 53.5t53.5 21.5q33 0 54.5 -21.5t21.5 -53.5 t-21.5 -53.5t-54.5 -21.5q-32 0 -53.5 21.5t-21.5 53.5z" />
<glyph horiz-adv-x="695" d="M20 435v85h85v73q0 83 46 124.5t128 41.5q58 0 92 -17v-79q-33 9 -65 9q-76 0 -76 -79v-73h209v140h125v-140h111v-85h-111v-435h-125v435h-209v-435h-125v435h-85z" />
<glyph horiz-adv-x="968" d="M20 435v85h85v73q0 83 46 124.5t128 41.5q58 0 92 -17v-79q-33 9 -65 9q-76 0 -76 -79v-73h209v73q0 83 46 124.5t127 41.5q54 0 88 -17v-79q-33 9 -60 9q-76 0 -76 -79v-73h333v-577q0 -83 -47.5 -124.5t-132.5 -41.5q-44 0 -81 17v79q30 -9 64 -9q72 0 72 79v492h-208 v-435h-125v435h-209v-435h-125v435h-85zM759 663q0 32 21.5 53.5t54.5 21.5q32 0 54 -21.5t22 -53.5t-22 -53.5t-54 -21.5q-33 0 -54.5 21.5t-21.5 53.5z" />
<glyph horiz-adv-x="1028" d="M20 435v85h85v73q0 83 46 124.5t128 41.5q58 0 92 -17v-79q-33 9 -65 9q-76 0 -76 -79v-73h209v73q0 83 46 124.5t127 41.5q59 0 93 -17v-79q-35 9 -65 9q-76 0 -76 -79v-73h208v140h125v-140h111v-85h-111v-435h-125v435h-208v-435h-125v435h-209v-435h-125v435h-85z " />
<glyph horiz-adv-x="731" d="M20 435v85h111v140h125v-140h219v140h125v-140h111v-85h-111v-435h-125v435h-219v-435h-125v435h-111z" />
<glyph horiz-adv-x="342" d="M21 515q0 96 156 96q10 0 44 -2v27q0 48 -49 48q-51 0 -53 -47h-90q1 53 41 81t102 28q33 0 62 -8t53 -32t24 -62v-204h-90v29q-44 -38 -101 -38q-48 0 -73.5 23t-25.5 61zM112 525q0 -34 43 -34q35 0 66 26v43q-22 3 -40 3q-69 0 -69 -38z" />
<glyph horiz-adv-x="345" d="M31 440v424h90v-157q42 39 87 39q54 0 87.5 -41.5t33.5 -115.5q0 -73 -37 -115.5t-94 -42.5q-47 0 -77 35v-26h-90zM121 524q24 -26 56 -26q61 0 61 91q0 89 -59 89q-32 0 -58 -26v-128z" />
<glyph horiz-adv-x="325" d="M15 589q0 71 42 114t111 43q61 0 99 -29.5t42 -81.5h-90q-10 49 -51 49q-60 0 -60 -95q0 -96 60 -96q39 0 50 46h90q-5 -50 -43 -79t-97 -29q-72 0 -112.5 43t-40.5 115z" />
<glyph horiz-adv-x="345" d="M15 589q0 73 37.5 115t95.5 42q43 0 76 -35v153h90v-424h-90v30q-40 -39 -87 -39q-54 0 -88 42t-34 116zM107 589q0 -91 59 -91q31 0 58 27v128q-25 25 -56 25q-61 0 -61 -89z" />
<glyph horiz-adv-x="327" d="M15 589q0 70 42.5 113.5t107.5 43.5q71 0 111 -43.5t35 -130.5h-203q6 -79 60 -79q22 0 32 8t15 25h91q-5 -43 -43 -69t-95 -26q-72 0 -112.5 43t-40.5 115zM110 625h109q-2 60 -54 60q-45 0 -55 -60z" />
<glyph horiz-adv-x="237" d="M8 672v65h51v30q0 106 111 106q39 0 59 -10v-60q-22 5 -39 5q-41 0 -41 -41v-30h80v-65h-80v-232h-90v232h-51z" />
<glyph horiz-adv-x="345" d="M15 591q0 73 37.5 114t95.5 41q43 0 76 -35v26h90v-294q0 -63 -44 -96.5t-104 -33.5q-65 0 -104.5 25.5t-40.5 74.5h90q3 -38 55 -38q58 0 58 59v40q-40 -39 -87 -39q-55 0 -88.5 41.5t-33.5 114.5zM107 591q0 -89 59 -89q31 0 58 27v124q-25 25 -56 25q-61 0 -61 -87z " />
<glyph horiz-adv-x="358" d="M31 440v424h90v-164q48 46 103 46q43 0 73 -23.5t30 -74.5v-208h-90v180q0 54 -51 54q-34 0 -65 -29v-205h-90z" />
<glyph horiz-adv-x="152" d="M28 825q0 21 15 35.5t37 14.5q23 0 38 -14.5t15 -35.5q0 -22 -15 -36.5t-38 -14.5q-22 0 -37 14.5t-15 36.5zM35 440v297h90v-297h-90z" />
<glyph horiz-adv-x="152" d="M28 825q0 21 15 35.5t37 14.5q23 0 38 -14.5t15 -35.5q0 -22 -15 -36.5t-38 -14.5q-22 0 -37 14.5t-15 36.5zM35 321v416h90v-416h-90z" />
<glyph horiz-adv-x="313" d="M31 440v424h90v-260l98 133h92l-103 -132l115 -165h-106l-96 149v-149h-90z" />
<glyph horiz-adv-x="152" d="M31 440v424h90v-424h-90z" />
<glyph horiz-adv-x="556" d="M31 440v297h90v-37q48 46 101 46q65 0 90 -47q53 47 112 47q42 0 71.5 -23.5t29.5 -74.5v-208h-91v180q0 54 -48 54q-34 0 -63 -29v-205h-90v180q0 54 -49 54q-34 0 -63 -29v-205h-90z" />
<glyph horiz-adv-x="358" d="M31 440v297h90v-37q48 46 103 46q43 0 73 -23.5t30 -74.5v-208h-90v180q0 54 -51 54q-34 0 -65 -29v-205h-90z" />
<glyph horiz-adv-x="345" d="M15 589q0 71 43.5 114t114.5 43t114 -43t43 -114t-43 -114.5t-114 -43.5t-114.5 43.5t-43.5 114.5zM108 589q0 -96 65 -96t65 96q0 95 -65 95t-65 -95z" />
<glyph horiz-adv-x="345" d="M31 321v416h90v-30q42 39 87 39q54 0 87.5 -41.5t33.5 -115.5q0 -73 -37 -115.5t-94 -42.5q-47 0 -77 35v-145h-90zM121 524q24 -26 56 -26q61 0 61 91q0 89 -59 89q-32 0 -58 -26v-128z" />
<glyph horiz-adv-x="345" d="M15 589q0 73 37.5 115t95.5 42q43 0 76 -35v26h90v-416h-90v149q-40 -39 -87 -39q-54 0 -88 42t-34 116zM107 589q0 -91 59 -91q31 0 58 27v128q-25 25 -56 25q-61 0 -61 -89z" />
<glyph horiz-adv-x="252" d="M31 440v297h91v-48q36 57 82 57q24 0 38 -14v-75q-21 9 -43 9q-51 0 -77 -37v-189h-91z" />
<glyph horiz-adv-x="307" d="M16 530h89q4 -40 55 -40q47 0 47 32q0 16 -14 22.5t-52 12.5q-30 5 -45.5 8.5t-37 13.5t-31.5 28.5t-10 45.5q0 44 37 68.5t94 24.5q64 0 98.5 -24t36.5 -66h-90q-3 31 -46 31q-45 0 -45 -27q0 -15 13.5 -21t50.5 -12q25 -4 36 -6t32 -9t30.5 -16t18 -25.5t8.5 -38.5 q0 -46 -38 -73.5t-95 -27.5q-66 0 -103 26.5t-39 72.5z" />
<glyph horiz-adv-x="242" d="M8 672v65h51v79h90v-79h74v-65h-74v-129q0 -25 7.5 -36t26.5 -11q14 0 44 8v-59q-35 -14 -71 -14q-97 0 -97 100v141h-51z" />
<glyph horiz-adv-x="354" d="M31 528v209h90v-181q0 -29 11.5 -41.5t37.5 -12.5q36 0 63 29v206h90v-297h-90v35q-48 -45 -100 -45q-42 0 -72 23.5t-30 74.5z" />
<glyph horiz-adv-x="332" d="M8 737h96l38 -110l30 -94l29 94l37 110h86l-115 -297h-82z" />
<glyph horiz-adv-x="507" d="M8 737h94l32 -108l25 -92l27 92l33 108h76l35 -108l28 -92l24 92l33 107h84l-105 -296h-79l-33 106l-26 92l-28 -92l-33 -106h-80z" />
<glyph horiz-adv-x="334" d="M8 440l109 152l-105 145h98l56 -84l57 84h89l-100 -139l114 -158h-97l-66 96l-65 -96h-90z" />
<glyph horiz-adv-x="332" d="M8 737h96l38 -110l30 -94l29 94l37 110h86l-160 -416h-87l48 122z" />
<glyph horiz-adv-x="278" d="M15 440v64l145 168h-139v65h241v-65l-144 -168h144v-64h-247z" />
<glyph horiz-adv-x="342" d="M21 -45q0 96 156 96q10 0 44 -2v27q0 48 -49 48q-51 0 -53 -47h-90q1 53 41 81t102 28q33 0 62 -8t53 -32t24 -62v-204h-90v29q-44 -38 -101 -38q-48 0 -73.5 23t-25.5 61zM112 -35q0 -34 43 -34q35 0 66 26v43q-22 3 -40 3q-69 0 -69 -38z" />
<glyph horiz-adv-x="345" d="M31 -120v424h90v-157q42 39 87 39q54 0 87.5 -41.5t33.5 -115.5q0 -73 -37 -115.5t-94 -42.5q-47 0 -77 35v-26h-90zM121 -36q24 -26 56 -26q61 0 61 91q0 89 -59 89q-32 0 -58 -26v-128z" />
<glyph horiz-adv-x="325" d="M15 29q0 71 42 114t111 43q61 0 99 -29.5t42 -81.5h-90q-10 49 -51 49q-60 0 -60 -95q0 -96 60 -96q39 0 50 46h90q-5 -50 -43 -79t-97 -29q-72 0 -112.5 43t-40.5 115z" />
<glyph horiz-adv-x="345" d="M15 29q0 73 37.5 115t95.5 42q43 0 76 -35v153h90v-424h-90v30q-40 -39 -87 -39q-54 0 -88 42t-34 116zM107 29q0 -91 59 -91q31 0 58 27v128q-25 25 -56 25q-61 0 -61 -89z" />
<glyph horiz-adv-x="327" d="M15 29q0 70 42.5 113.5t107.5 43.5q71 0 111 -43.5t35 -130.5h-203q6 -79 60 -79q22 0 32 8t15 25h91q-5 -43 -43 -69t-95 -26q-72 0 -112.5 43t-40.5 115zM110 65h109q-2 60 -54 60q-45 0 -55 -60z" />
<glyph horiz-adv-x="237" d="M8 112v65h51v30q0 106 111 106q39 0 59 -10v-60q-22 5 -39 5q-41 0 -41 -41v-30h80v-65h-80v-232h-90v232h-51z" />
<glyph horiz-adv-x="345" d="M15 31q0 73 37.5 114t95.5 41q43 0 76 -35v26h90v-294q0 -63 -44 -96.5t-104 -33.5q-65 0 -104.5 25.5t-40.5 74.5h90q3 -38 55 -38q58 0 58 59v40q-40 -39 -87 -39q-55 0 -88.5 41.5t-33.5 114.5zM107 31q0 -89 59 -89q31 0 58 27v124q-25 25 -56 25q-61 0 -61 -87z" />
<glyph horiz-adv-x="358" d="M31 -120v424h90v-164q48 46 103 46q43 0 73 -23.5t30 -74.5v-208h-90v180q0 54 -51 54q-34 0 -65 -29v-205h-90z" />
<glyph horiz-adv-x="152" d="M28 265q0 21 15 35.5t37 14.5q23 0 38 -14.5t15 -35.5q0 -22 -15 -36.5t-38 -14.5q-22 0 -37 14.5t-15 36.5zM35 -120v297h90v-297h-90z" />
<glyph horiz-adv-x="152" d="M28 265q0 21 15 35.5t37 14.5q23 0 38 -14.5t15 -35.5q0 -22 -15 -36.5t-38 -14.5q-22 0 -37 14.5t-15 36.5zM35 177h90v-416h-90v416z" />
<glyph horiz-adv-x="313" d="M31 -120v424h90v-260l98 133h92l-103 -132l115 -165h-106l-96 149v-149h-90z" />
<glyph horiz-adv-x="152" d="M31 -120v424h90v-424h-90z" />
<glyph horiz-adv-x="556" d="M31 -120v297h90v-37q48 46 101 46q65 0 90 -47q53 47 112 47q42 0 71.5 -23.5t29.5 -74.5v-208h-91v180q0 54 -48 54q-34 0 -63 -29v-205h-90v180q0 54 -49 54q-34 0 -63 -29v-205h-90z" />
<glyph horiz-adv-x="358" d="M31 -120v297h90v-37q48 46 103 46q43 0 73 -23.5t30 -74.5v-208h-90v180q0 54 -51 54q-34 0 -65 -29v-205h-90z" />
<glyph horiz-adv-x="345" d="M15 29q0 71 43.5 114t114.5 43t114 -43t43 -114t-43 -114.5t-114 -43.5t-114.5 43.5t-43.5 114.5zM108 29q0 -96 65 -96t65 96q0 95 -65 95t-65 -95z" />
<glyph horiz-adv-x="345" d="M31 177h90v-30q42 39 87 39q54 0 87.5 -41.5t33.5 -115.5q0 -73 -37 -115.5t-94 -42.5q-47 0 -77 35v-145h-90v416zM121 -36q24 -26 56 -26q61 0 61 91q0 89 -59 89q-32 0 -58 -26v-128z" />
<glyph horiz-adv-x="345" d="M15 29q0 73 37.5 115t95.5 42q43 0 76 -35v26h90v-416h-90v149q-40 -39 -87 -39q-54 0 -88 42t-34 116zM107 29q0 -91 59 -91q31 0 58 27v128q-25 25 -56 25q-61 0 -61 -89z" />
<glyph horiz-adv-x="252" d="M31 -120v297h91v-48q36 57 82 57q24 0 38 -14v-75q-21 9 -43 9q-51 0 -77 -37v-189h-91z" />
<glyph horiz-adv-x="307" d="M16 -30h89q4 -40 55 -40q47 0 47 32q0 16 -14 22.5t-52 12.5q-30 5 -45.5 8.5t-37 13.5t-31.5 28.5t-10 45.5q0 44 37 68.5t94 24.5q64 0 98.5 -24t36.5 -66h-90q-3 31 -46 31q-45 0 -45 -27q0 -15 13.5 -21t50.5 -12q25 -4 36 -6t32 -9t30.5 -16t18 -25.5t8.5 -38.5 q0 -46 -38 -73.5t-95 -27.5q-66 0 -103 26.5t-39 72.5z" />
<glyph horiz-adv-x="242" d="M8 112v65h51v79h90v-79h74v-65h-74v-129q0 -25 7.5 -36t26.5 -11q14 0 44 8v-59q-35 -14 -71 -14q-97 0 -97 100v141h-51z" />
<glyph horiz-adv-x="354" d="M31 -32v209h90v-181q0 -29 11.5 -41.5t37.5 -12.5q36 0 63 29v206h90v-297h-90v35q-48 -45 -100 -45q-42 0 -72 23.5t-30 74.5z" />
<glyph horiz-adv-x="332" d="M8 177h96l38 -110l30 -94l29 94l37 110h86l-115 -297h-82z" />
<glyph horiz-adv-x="507" d="M8 177h94l32 -108l25 -92l27 92l33 108h76l35 -108l28 -92l24 92l33 107h84l-105 -296h-79l-33 106l-26 92l-28 -92l-33 -106h-80z" />
<glyph horiz-adv-x="334" d="M8 -120l109 152l-105 145h98l56 -84l57 84h89l-100 -139l114 -158h-97l-66 96l-65 -96h-90z" />
<glyph horiz-adv-x="332" d="M8 177h96l38 -110l30 -94l29 94l37 110h86l-160 -416h-87l48 122z" />
<glyph horiz-adv-x="278" d="M15 -56l145 168h-139v65h241v-65l-144 -168h144v-64h-247v64z" />
<glyph d="M35 211h136q9 -129 138 -129q56 0 92.5 27.5t36.5 78.5q0 38 -25 62t-48 31.5t-77 18.5q-11 3 -17 4q-29 6 -46 10.5t-44.5 13.5t-44 18.5t-36.5 25t-31 34t-18.5 45t-7.5 58.5q0 81 54.5 135.5t143.5 67.5v108h119v-110q184 -29 196 -212h-135q-10 120 -130 120 q-54 0 -87.5 -24t-33.5 -72q0 -38 24.5 -62t48.5 -32t78 -19q8 -2 13 -3q28 -6 41 -9t39 -10t40 -14t34.5 -18t31.5 -24.5t23 -31.5t17 -41.5t5 -51.5q0 -83 -58 -142.5t-147 -74.5v-109h-119v110q-197 28 -206 221z" />
<glyph d="M66 260q0 107 46.5 178t132.5 90v112h119v-110q75 -13 118.5 -62t50.5 -126h-126q-7 59 -30.5 84t-69.5 25q-52 0 -82 -48t-30 -143q0 -191 112 -191q43 0 67 24.5t32 79.5h126q-8 -74 -51.5 -122t-116.5 -61v-110h-119v111q-89 18 -134 89t-45 180z" />
<glyph d="M31 0v99h81v191h-81v100h81v113q0 99 61.5 155.5t161.5 56.5q108 0 167.5 -52t65.5 -154h-136q-9 109 -97 109q-40 0 -66.5 -24.5t-26.5 -76.5v-127h205v-100h-205v-191h304v-99h-515z" />
<glyph d="M24 700h139l151 -267l145 267h117l-178 -310h138v-100h-167v-104h167v-100h-167v-86h-130v86h-167v100h167v104h-167v100h137z" />
<glyph d="M-23 -45h121q9 -81 68 -81q68 0 68 88v231h-155v99h155v220q0 99 47.5 151t133.5 52q83 0 128.5 -41.5t51.5 -119.5h-120q-6 35 -18 49.5t-38 14.5q-54 0 -54 -88v-238h156v-99h-156v-213q0 -98 -53 -150.5t-141 -52.5q-86 0 -137 45t-57 133z" />
<glyph d="M31 193v99h54q-2 38 -2 58q0 32 1 47h-53v99h67q24 104 83 161.5t148 57.5q220 0 243 -253h-139q-9 82 -31.5 118t-72.5 36q-77 0 -103 -120h123v-99h-135q-1 -15 -1 -47q0 -40 1 -58h135v-99h-123q24 -109 103 -109q50 0 72.5 35.5t31.5 118.5h139q-23 -253 -243 -253 q-186 0 -231 208h-67z" />
<glyph d="M31 0v700h170q115 0 168.5 -60.5t53.5 -199.5q0 -94 -26 -238h-87q21 144 21 222q0 97 -32 143.5t-108 46.5h-68v-614h-92zM178 0v497h93v-411h61q79 0 113.5 62t34.5 202q0 133 -39 350h86q42 -197 42 -349q0 -180 -56 -265.5t-171 -85.5h-164z" />
<glyph d="M37 350q0 123 43 211.5t120 127.5l26 131h122l-21 -105q29 -1 66 -10l23 115h122l-36 -179q61 -67 71 -179h-139q-18 154 -122 154q-65 0 -105 -70t-40 -196q0 -129 37.5 -197.5t107.5 -68.5q105 0 122 154h139q-10 -107 -63 -169t-137 -78l-22 -111h-122l22 111 q-32 6 -63 22l-27 -133h-122l47 236q-49 91 -49 234z" />
<glyph d="M30 0v516h107v-50q23 31 53 48t55 17q75 0 96 -71q17 21 36 37l69 139h121l-59 -117q51 -29 51 -112v-407h-107v381q0 9 -2 21l-102 -205v-197h-98l-55 -110h-121l55 110h-99zM137 16l104 209v156q0 56 -39 56q-33 0 -65 -41v-380z" />
<glyph d="M17 199v100h55v104h-55v100h55v197h122l221 -487l-3 158v329h115v-197h56v-100h-56v-104h56v-100h-56v-199h-121l-222 487l3 -158v-329h-115v199h-55z" />
<glyph d="M48 436v100h292q-25 65 -116 65h-176v99h80h416v-99h-118q33 -31 45 -65h73v-100h-63q-12 -86 -71.5 -132t-145.5 -54l263 -250h-159l-251 248v95h107q106 0 123 93h-299z" />
<glyph d="M9 199v100h78l-14 104h-64v100h51l-26 197h108l32 -365l11 -171l19 171l50 365h110l50 -365l19 -173l10 173l29 365h94l-23 -197h48v-100h-60l-13 -104h73v-100h-84l-24 -199h-109l-50 344l-19 174l-20 -174l-51 -344h-108l-26 199h-91z" />
<glyph d="M47 0v88h517v-88h-517zM47 350q0 102 57.5 159t138.5 57q88 0 130 -58v89h-112v86h112v61h122v-61h69v-86h-69v-448h-122v50q-56 -65 -144 -65q-78 0 -130 57t-52 159zM169 350q0 -62 28.5 -95t71.5 -33q58 0 104 44v171q-43 41 -99 41q-44 0 -74.5 -33t-30.5 -95z" />
<glyph d="M20 318v100h76v282h131v-282h2l189 282h130l-199 -282h197v-100h-183l210 -318h-152l-194 311v-311h-131v318h-76z" />
<glyph d="M50 601v99h498v-99h-184v-109l122 49v-104l-122 -49v-79l122 49v-104l-122 -49v-205h-130v152l-121 -49v104l121 49v79l-121 -49v104l121 49v162h-184z" />
<glyph d="M17 418v99h74v183h178q94 0 162 -46.5t84 -136.5h67v-99h-67q-16 -89 -84.5 -135t-161.5 -46h-47v-237h-131v418h-74zM222 335h47q89 0 111 83h-158v-83zM222 517h159q-21 86 -112 86h-47v-86z" />
<glyph d="M31 298v100h289q46 22 70 49t24 69q0 49 -28 75.5t-81 26.5q-112 0 -122 -109h-136q8 100 73.5 153t184.5 53q110 0 173 -48.5t63 -132.5q0 -85 -66 -136h94v-100h-307q-86 -43 -86 -114q0 -49 28.5 -75.5t81.5 -26.5q117 0 127 109h136q-8 -99 -75.5 -152.5 t-187.5 -53.5q-110 0 -173.5 49t-63.5 132t61 132h-79z" />
<glyph d="M37 350q0 142 57 237t154 120v113h119v-109q87 -15 141.5 -77.5t64.5 -171.5h-139q-18 154 -122 154q-65 0 -105 -70t-40 -196q0 -129 37.5 -197.5t107.5 -68.5q105 0 122 154h139q-10 -109 -64.5 -171.5t-141.5 -77.5v-109h-119v111q-104 23 -157.5 117t-53.5 242z" />
<glyph d="M58 0v700h167v120h120v-123q88 -8 143.5 -50t55.5 -125q0 -52 -30 -95.5t-79 -58.5q65 -13 101 -53.5t36 -107.5q0 -93 -63 -146t-164 -60v-121h-120v120h-167zM189 97h124q127 0 127 110q0 99 -127 99h-124v-209zM189 401h102q55 0 88 27t33 81q0 94 -121 94h-102v-202z " />
<glyph d="M20 133l76 76q-39 64 -39 151t39 151l-76 76l70 70l76 -76q55 35 134 35t134 -35l76 76l70 -70l-76 -76q39 -64 39 -151t-39 -151l76 -76l-70 -70l-76 76q-56 -35 -134 -35t-134 35l-76 -76zM185 360q0 -172 115 -172t115 172q0 171 -115 171t-115 -171z" />
<glyph d="M32 186v100h87l34 135h-71v100h97l46 179h112l-46 -179h106l46 179h112l-46 -179h61v-100h-87l-34 -135h71v-100h-97l-48 -186h-112l48 186h-106l-48 -186h-112l48 186h-61zM231 286h106l34 135h-106z" />
<glyph horiz-adv-x="547" d="M51 163h124q4 -46 33.5 -69t74.5 -23q40 0 69 19t29 55t-32.5 53.5t-90.5 28.5q-31 6 -48 9.5t-44.5 12t-43.5 20t-33 28.5t-24.5 41.5t-7.5 55.5q0 63 44.5 106t116.5 54v82h113v-84q148 -28 159 -166h-124q-4 42 -31 63.5t-71 21.5q-39 0 -65 -17.5t-26 -50.5 q0 -25 19 -41.5t40.5 -22.5t61.5 -14q36 -7 57 -12t52.5 -17.5t48.5 -28.5t30.5 -44.5t13.5 -65.5q0 -63 -47 -109t-118 -59v-82h-113v83q-77 13 -120.5 57t-46.5 116z" />
<glyph horiz-adv-x="480" d="M51 202q0 82 36.5 137.5t105.5 72.5v85h112v-84q59 -13 94 -50.5t40 -95.5h-113q-7 42 -23.5 57t-52.5 15q-84 0 -84 -137t84 -137q34 0 51 14.5t23 53.5h113q-6 -56 -40 -93t-92 -50v-83h-112v84q-70 16 -106 71.5t-36 139.5z" />
<glyph horiz-adv-x="499" d="M29 0v89h61v130h-61v89h61v77q0 78 54.5 125t137.5 47q87 0 139.5 -41.5t56.5 -120.5h-124q-8 76 -72 76q-31 0 -50 -18.5t-19 -56.5v-88h157v-89h-157v-130h236v-89h-420z" />
<glyph horiz-adv-x="537" d="M29 543h132l120 -208l114 208h114l-136 -231h93v-89h-133v-69h133v-89h-133v-65h-123v65h-133v89h133v69h-133v89h96z" />
<glyph horiz-adv-x="562" d="M-29 -24h124q8 -65 61 -65q28 0 45.5 18t17.5 57v158h-114v89h114v152q0 77 54 124.5t133 47.5t129.5 -39t55.5 -112h-124q-8 65 -61 65q-63 0 -63 -75v-163h116v-89h-116v-147q0 -77 -54 -124.5t-133 -47.5q-80 0 -130.5 39.5t-54.5 111.5z" />
<glyph horiz-adv-x="576" d="M24 148v85h51q-1 12 -1 38q0 21 1 31h-51v84h65q24 81 81 126t141 45q90 0 152.5 -51.5t71.5 -147.5h-127q-14 110 -97 110q-69 0 -96 -82h120v-84h-134q-1 -10 -1 -31q0 -26 1 -38h134v-85h-117q27 -74 93 -74q83 0 97 110h127q-9 -96 -71.5 -147.5t-152.5 -51.5 q-82 0 -138.5 43t-80.5 120h-68z" />
<glyph horiz-adv-x="687" d="M81 0v543h200q105 0 155 -47.5t50 -154.5q0 -73 -20 -184h-98q17 116 17 171q0 64 -25.5 94t-86.5 30h-89v-452h-103zM230 0v385h102v-294h72q69 0 98 44t29 136q0 109 -31 272h98q34 -152 34 -271q0 -139 -54.5 -205.5t-165.5 -66.5h-182z" />
<glyph horiz-adv-x="579" d="M27 -93l60 194q-42 72 -42 170q0 106 47.5 179t131.5 97l28 89h112l-25 -81q23 -3 46 -9l27 90h113l-45 -145q51 -51 58 -133h-126q-8 57 -35 83.5t-76 26.5q-61 0 -93 -51.5t-32 -145.5t32 -145.5t93 -51.5q49 0 76 26.5t35 83.5h126q-8 -90 -66.5 -141t-147.5 -57 l-24 -79h-112l28 91q-23 7 -43 18l-34 -109h-112z" />
<glyph horiz-adv-x="797" d="M75 0v404h114v-52q65 65 136 65q88 0 115 -67q13 13 36 29l70 114h113l-47 -77q109 -12 109 -138v-278h-114v251q0 36 -12 53.5t-40 20.5l-100 -163v-162h-100l-52 -85h-113l151 245v91q0 39 -14.5 56.5t-48.5 17.5q-48 0 -89 -41v-284h-114z" />
<glyph horiz-adv-x="616" d="M18 148v85h72v69h-72v84h72v157h117l210 -375l-3 123v252h112v-157h72v-84h-72v-69h72v-85h-72v-148h-117l-209 374l2 -122v-252h-112v148h-72z" />
<glyph horiz-adv-x="492" d="M31 325v85h241q-23 48 -98 48h-143v85h75h344v-85h-82q20 -23 28 -48h54v-85h-49q-19 -119 -161 -144l194 -181h-150l-187 175v85h77q85 0 102 65h-245z" />
<glyph horiz-adv-x="793" d="M14 148v85h105l-20 69h-85v84h62l-44 157h131l61 -264l26 -128l30 128l71 264h107l74 -264l34 -129l24 129l55 264h116l-40 -157h57v-84h-78l-18 -69h96v-85h-117l-38 -148h-111l-75 263l-35 129l-30 -129l-70 -263h-118l-41 148h-129z" />
<glyph horiz-adv-x="479" d="M45 0v85h414v-85h-414zM45 276q0 76 46 119.5t111 43.5q68 0 103 -46v69h-89v75h89v40h105v-40h49v-75h-49v-338h-105v40q-45 -51 -114 -51q-62 0 -104 43.5t-42 119.5zM157 276q0 -44 18.5 -65t47.5 -21q46 0 82 34v106q-35 32 -78 32q-30 0 -50 -21.5t-20 -64.5z" />
<glyph horiz-adv-x="527" d="M13 243v85h68v215h123v-200l146 200h124l-165 -215h172v-85h-156l181 -243h-148l-154 220v-220h-123v243h-68z" />
<glyph horiz-adv-x="470" d="M30 454v89h410v-89h-143v-73l96 36v-91l-96 -36v-55l96 36v-90l-96 -36v-145h-124v99l-96 -36v91l96 36v55l-96 -36v90l96 36v119h-143z" />
<glyph horiz-adv-x="537" d="M13 320v85h68v138h175q76 0 134.5 -35.5t74.5 -102.5h62v-85h-61q-14 -69 -73 -105.5t-137 -36.5h-52v-178h-123v320h-68zM204 265h52q67 0 84 55h-136v-55zM204 405h135q-19 51 -83 51h-52v-51z" />
<glyph horiz-adv-x="558" d="M45 227v85h245q78 33 78 89q0 33 -23.5 51.5t-61.5 18.5q-81 0 -92 -75h-123q5 77 60.5 119t154.5 42q91 0 145.5 -38t54.5 -104q0 -62 -44 -103h70v-85h-257q-69 -31 -69 -86q0 -32 23.5 -51t60.5 -19q88 0 96 75h124q-6 -77 -63.5 -119t-156.5 -42q-91 0 -145.5 38.5 t-54.5 104.5q0 61 40 99h-62z" />
<glyph horiz-adv-x="579" d="M45 271q0 112 52 186t144 94v85h113v-83q77 -13 127 -63t57 -132h-126q-8 57 -35 83.5t-76 26.5q-61 0 -93 -51.5t-32 -145.5t32 -145.5t93 -51.5q49 0 76 26.5t35 83.5h126q-7 -82 -57 -132t-127 -63v-82h-113v84q-92 20 -144 94t-52 186z" />
<glyph horiz-adv-x="567" d="M81 0v543h133v93h113v-95q77 -7 124.5 -41t47.5 -101q0 -40 -23.5 -71t-63.5 -43q51 -10 80.5 -43.5t29.5 -84.5q0 -74 -54 -113t-141 -43v-94h-113v93h-133zM204 84h101q93 0 93 74q0 75 -93 75h-101v-149zM204 315h83q89 0 89 74q0 70 -89 70h-83v-144z" />
<glyph horiz-adv-x="560" d="M36 447l72 69l66 -63q48 24 106 24q57 0 107 -24l65 63l72 -69l-64 -62q28 -47 28 -106q0 -61 -29 -107l64 -61l-71 -70l-66 64q-48 -24 -106 -24q-60 0 -105 24l-66 -64l-72 70l64 62q-28 47 -28 106q0 58 28 105zM188 279q0 -60 25.5 -90.5t66.5 -30.5q42 0 67 30.5 t25 90.5t-25 90t-67 30q-41 0 -66.5 -30t-25.5 -90z" />
<glyph d="M36 140v85h91l26 98h-77v84h99l36 136h109l-36 -136h103l36 136h109l-36 -136h68v-84h-90l-26 -98h76v-85h-99l-37 -140h-109l37 140h-103l-37 -140h-109l37 140h-68zM236 225h103l26 98h-103z" />
<glyph horiz-adv-x="640" d="M45 350q0 167 74 266t201 99q126 0 200 -99.5t74 -265.5t-74 -265.5t-200 -99.5q-127 0 -201 99t-74 266zM171 350q0 -90 19 -155l194 404q-29 17 -64 17q-69 0 -109 -69t-40 -197zM255 101q29 -17 65 -17q68 0 108.5 69.5t40.5 196.5q0 93 -20 156z" />
<glyph horiz-adv-x="581" d="M45 286q0 136 64.5 217.5t180.5 81.5q117 0 181 -81.5t64 -217.5q0 -137 -64 -219t-181 -82q-116 0 -180.5 82t-64.5 219zM176 286q0 -215 114 -215q115 0 115 215q0 213 -115 213q-114 0 -114 -213z" />
<glyph horiz-adv-x="581" d="M45 286q0 136 64.5 217.5t180.5 81.5q117 0 181 -81.5t64 -217.5q0 -137 -64 -219t-181 -82q-116 0 -180.5 82t-64.5 219zM165 286q0 -77 16 -124l159 326q-24 11 -50 11q-125 0 -125 -213zM241 82q22 -11 49 -11q126 0 126 215q0 76 -16 124z" />
<glyph horiz-adv-x="402" d="M35 368v112l163 90h127v-570h-127v456z" />
<glyph horiz-adv-x="540" d="M40 372q6 105 65.5 159t169.5 54q105 0 162 -47.5t57 -134.5q0 -40 -14.5 -74.5t-52.5 -73t-77.5 -69.5t-116.5 -86h273v-100h-448v100q178 119 242.5 178t64.5 125q0 43 -23.5 67.5t-66.5 24.5q-99 0 -108 -123h-127z" />
<glyph horiz-adv-x="581" d="M36 58h132q8 -116 125 -116q55 0 87 30.5t32 93.5q0 114 -148 114h-75v92h75q65 0 98 32t33 87q0 52 -29 78t-76 26q-106 0 -119 -116h-127q7 98 72.5 152t175.5 54q105 0 168 -51t63 -144q0 -49 -32 -94.5t-85 -62.5q68 -14 101.5 -61t33.5 -105q0 -97 -70.5 -156.5 t-178.5 -59.5q-244 0 -256 207z" />
<glyph horiz-adv-x="576" d="M39 0v100l196 470h123l-199 -470h171v171h118v-171h97v-100h-97v-134h-118v134h-291z" />
<glyph horiz-adv-x="567" d="M45 51h132q9 -109 111 -109q111 0 111 156q0 145 -115 145q-66 0 -108 -59h-113v386h421v-100h-308v-199q25 31 64 49.5t81 18.5q94 0 150 -61.5t56 -179.5q0 -114 -67.5 -180.5t-171.5 -66.5q-113 0 -175 52t-68 148z" />
<glyph horiz-adv-x="601" d="M45 335q0 212 72 318t198 106q100 0 159.5 -49.5t68.5 -147.5h-127q-6 56 -34.5 81t-66.5 25q-65 0 -100 -68.5t-39 -228.5q29 37 76.5 60t96.5 23q96 0 151.5 -60t55.5 -172q0 -107 -71.5 -172t-176.5 -65q-127 0 -195 90.5t-68 259.5zM177 291q10 -215 131 -215 q55 0 86 37t31 105q0 140 -113 140q-37 0 -75 -19t-60 -48z" />
<glyph horiz-adv-x="494" d="M35 470v100h429v-100l-237 -604h-125l242 604h-309z" />
<glyph horiz-adv-x="618" d="M45 203q0 62 37 115t101 74q-54 19 -86.5 62t-32.5 101q0 94 68 149t177 55t177 -55t68 -149q0 -58 -32.5 -101t-86.5 -62q64 -21 100.5 -74t36.5 -115q0 -102 -73 -160t-190 -58t-190.5 58t-73.5 160zM174 205q0 -62 37 -95.5t98 -33.5t98 33.5t37 95.5q0 56 -35.5 93.5 t-99.5 37.5t-99.5 -37.5t-35.5 -93.5zM192 553q0 -53 30.5 -86t86.5 -33t86.5 33t30.5 86q0 57 -32.5 86t-84.5 29t-84.5 -29t-32.5 -86z" />
<glyph horiz-adv-x="601" d="M45 354q0 106 71 168.5t177 62.5q128 0 195.5 -88.5t67.5 -256.5q0 -199 -71.5 -294t-198.5 -95q-101 0 -162.5 48t-70.5 144h127q7 -56 37 -78.5t69 -22.5q66 0 100.5 59t38.5 208q-30 -36 -77.5 -59t-95.5 -23q-97 0 -152 57.5t-55 169.5zM176 358q0 -63 28 -98.5 t85 -35.5q37 0 74.5 18.5t60.5 46.5q-13 206 -131 206q-55 0 -86 -35t-31 -102z" />
<glyph d="M40 350q0 169 67.5 267t192.5 98t192.5 -98t67.5 -267t-67.5 -267t-192.5 -98t-192.5 98t-67.5 267zM177 350q0 -266 123 -266q60 0 91.5 68t31.5 198t-31.5 198t-91.5 68q-123 0 -123 -266z" />
<glyph d="M40 350q0 169 67.5 267t192.5 98t192.5 -98t67.5 -267t-67.5 -267t-192.5 -98t-192.5 98t-67.5 267zM161 350q0 -86 14 -145l188 393q-27 18 -63 18q-66 0 -102.5 -68.5t-36.5 -197.5zM236 102q27 -18 64 -18q66 0 102.5 68.5t36.5 197.5q0 88 -15 146z" />
<glyph d="M81 0v99h167v487l-167 -89v113l167 90h131v-601h162v-99h-293h-167z" />
<glyph d="M63 485q6 112 70.5 171t176.5 59q106 0 167.5 -53t61.5 -150q0 -60 -36.5 -125.5t-93.5 -126.5t-165 -161h305v-99h-468v99q174 164 218 211q101 111 107 191v11q0 52 -25.5 79t-70.5 27q-103 0 -111 -133h-136z" />
<glyph d="M53 192h136q9 -110 119 -110q52 0 84 33t32 86q0 48 -37 77.5t-111 29.5h-70v99h70q64 0 97.5 32t33.5 81q0 48 -26.5 73t-71.5 25q-100 0 -113 -110h-135q8 98 72.5 152.5t175.5 54.5q104 0 167.5 -51t63.5 -144q0 -49 -31.5 -93.5t-85.5 -62.5q68 -13 101 -59t33 -104 q0 -97 -70.5 -156.5t-178.5 -59.5q-121 0 -185 53t-70 154z" />
<glyph d="M51 124v99l196 477h124l-198 -477h172v167h121v-167h91v-99h-91v-124h-121v124h-294z" />
<glyph d="M63 181h136q8 -99 106 -99q50 0 78 39t28 108q0 141 -105 141q-71 0 -112 -57h-113v387h420v-99h-307v-206q24 34 65 54t84 20q94 0 147.5 -60.5t53.5 -179.5q0 -114 -67.5 -179t-171.5 -65q-114 0 -175 50t-67 146z" />
<glyph d="M49 314q0 192 73 296.5t196 104.5q98 0 156 -46t67 -131h-135q-7 43 -28 61.5t-60 18.5q-61 0 -93 -59t-38 -186q29 36 74 58.5t92 22.5q96 0 151 -60t55 -172q0 -107 -71.5 -172t-175.5 -65q-126 0 -194.5 87t-68.5 242zM186 295q4 -213 126 -213q53 0 83.5 39t30.5 101 q0 61 -27 97.5t-84 36.5q-78 0 -129 -61z" />
<glyph d="M71 601v99h449v-99l-258 -601h-125l263 601h-329z" />
<glyph d="M40 188q0 62 34.5 109.5t99.5 64.5q-54 20 -85 61t-31 96q0 93 66.5 144.5t175.5 51.5t175.5 -51.5t66.5 -144.5q0 -55 -31 -96t-85 -61q65 -17 99.5 -64.5t34.5 -109.5q0 -101 -70.5 -152t-189.5 -51t-189.5 51t-70.5 152zM170 192q0 -54 35 -82t95 -28t95 28t35 82 q0 52 -33 83t-97 31t-97 -31t-33 -83zM187 514q0 -50 28.5 -79t84.5 -29t84.5 29t28.5 79q0 51 -31 77.5t-82 26.5t-82 -26.5t-31 -77.5z" />
<glyph d="M49 482q0 106 71.5 169.5t176.5 63.5q126 0 194 -87t68 -243q0 -193 -71 -296.5t-198 -103.5q-103 0 -164.5 49t-68.5 143h136q11 -95 97 -95q68 0 98.5 61.5t34.5 200.5q-30 -37 -75 -60t-92 -23q-97 0 -152 56t-55 165zM181 482q0 -122 112 -122q38 0 72.5 16.5 t56.5 44.5q-9 197 -125 197q-55 0 -85.5 -36.5t-30.5 -99.5z" />
<glyph d="M55 286q0 136 64 217.5t181 81.5q116 0 180.5 -81.5t64.5 -217.5q0 -137 -64.5 -219t-180.5 -82q-117 0 -181 82t-64 219zM186 286q0 -215 114 -215t114 215q0 213 -114 213t-114 -213z" />
<glyph d="M55 286q0 136 64 217.5t181 81.5q116 0 180.5 -81.5t64.5 -217.5q0 -137 -64.5 -219t-180.5 -82q-117 0 -181 82t-64 219zM174 286q0 -72 16 -125l159 327q-19 11 -49 11q-126 0 -126 -213zM250 82q24 -11 50 -11q126 0 126 215q0 73 -16 124z" />
<glyph d="M80 0v100h173v355l-173 -90v115l173 90h127v-470h163v-100h-290h-173z" />
<glyph d="M72 372q6 105 65.5 159t169.5 54q105 0 162 -47.5t57 -134.5q0 -40 -14.5 -74.5t-52.5 -73t-77.5 -69.5t-116.5 -86h273v-100h-448v100q178 119 242.5 178t64.5 125q0 43 -23.5 67.5t-66.5 24.5q-99 0 -108 -123h-127z" />
<glyph d="M47 58h132q8 -116 124 -116q55 0 87.5 30.5t32.5 93.5q0 114 -148 114h-75v92h75q65 0 98 32t33 87q0 52 -29 78t-76 26q-107 0 -119 -116h-127q7 98 72.5 152t175.5 54q105 0 168 -51t63 -144q0 -49 -32 -94.5t-85 -62.5q68 -14 101 -61t33 -105q0 -97 -70.5 -156.5 t-177.5 -59.5q-244 0 -256 207z" />
<glyph d="M51 0v100l196 470h123l-199 -470h171v171h118v-171h97v-100h-97v-134h-118v134h-291z" />
<glyph d="M57 51h132q9 -109 111 -109q110 0 110 156q0 145 -114 145q-66 0 -108 -59h-113v386h421v-100h-308v-199q25 31 64 49.5t81 18.5q94 0 150 -61.5t56 -179.5q0 -114 -67.5 -180.5t-171.5 -66.5q-113 0 -175 52t-68 148z" />
<glyph d="M43 335q0 212 72 318t198 106q100 0 159.5 -49.5t68.5 -147.5h-127q-7 56 -35.5 81t-65.5 25q-64 0 -99 -66.5t-39 -219.5q29 35 76.5 58t95.5 23q97 0 152 -60.5t55 -175.5q0 -110 -71.5 -176t-176.5 -66q-127 0 -195 90.5t-68 259.5zM175 301q7 -225 131 -225 q55 0 86 38t31 108q0 145 -113 145q-38 0 -75.5 -19t-59.5 -47z" />
<glyph d="M72 470v100h460v-100l-258 -604h-125l263 604h-340z" />
<glyph d="M37 203q0 62 36.5 115t100.5 74q-54 19 -86.5 62t-32.5 101q0 94 68 149t177 55t177 -55t68 -149q0 -58 -32.5 -101t-86.5 -62q64 -21 100.5 -74t36.5 -115q0 -102 -73 -160t-190 -58t-190 58t-73 160zM165 205q0 -62 37 -95.5t98 -33.5t98 33.5t37 95.5q0 56 -35.5 93.5 t-99.5 37.5t-99.5 -37.5t-35.5 -93.5zM183 553q0 -53 30.5 -86t86.5 -33t86.5 33t30.5 86q0 57 -32.5 86t-84.5 29t-84.5 -29t-32.5 -86z" />
<glyph d="M43 354q0 106 71 168.5t177 62.5q127 0 195 -88.5t68 -256.5q0 -199 -71.5 -294t-198.5 -95q-102 0 -163 48t-70 144h127q6 -56 36.5 -78.5t69.5 -22.5q66 0 100.5 59.5t38.5 208.5q-29 -36 -76.5 -59.5t-96.5 -23.5q-97 0 -152 57.5t-55 169.5zM174 358q0 -63 28 -98.5 t85 -35.5q37 0 74.5 19t60.5 47q-13 205 -131 205q-55 0 -86 -35t-31 -102z" />
<glyph horiz-adv-x="559" d="M45 271q0 129 64 207.5t171 78.5t170.5 -78.5t63.5 -207.5t-63.5 -207.5t-170.5 -78.5t-171 78.5t-64 207.5zM173 271q0 -94 29 -145t78 -51t77.5 50.5t28.5 145.5t-28.5 145.5t-77.5 50.5t-78 -51t-29 -145z" />
<glyph horiz-adv-x="559" d="M45 271q0 130 63.5 208t171.5 78q107 0 170.5 -78t63.5 -208q0 -129 -63.5 -207.5t-170.5 -78.5t-171 78.5t-64 207.5zM162 271q0 -67 15 -110l147 299q-20 11 -44 11q-52 0 -85 -50.5t-33 -149.5zM234 83q21 -12 46 -12q52 0 84.5 50.5t32.5 149.5q0 63 -15 111z" />
<glyph horiz-adv-x="372" d="M35 372v101l132 70h124v-543h-124v440z" />
<glyph horiz-adv-x="479" d="M45 376q5 86 60 133.5t145 47.5q85 0 137.5 -42t52.5 -117q0 -67 -52 -134.5t-175 -173.5h231v-90h-384v90q18 16 51 44.5t47.5 41.5t40 36t37 35.5t28.5 31t24.5 31t16.5 28.5t12 30.5t3 29.5q0 33 -19.5 52t-51.5 19q-71 0 -80 -93h-124z" />
<glyph horiz-adv-x="509" d="M41 148h124q9 -76 92 -76q42 0 65 22t23 61q0 79 -116 79h-57v87h57q51 0 76.5 22.5t25.5 58.5q0 31 -19.5 49.5t-53.5 18.5q-74 0 -87 -76h-124q6 75 63.5 119t147.5 44q94 0 145.5 -38.5t51.5 -112.5q0 -41 -26 -75.5t-72 -48.5q57 -10 84.5 -46t27.5 -81 q0 -77 -58 -123.5t-154 -46.5q-98 0 -154.5 43t-61.5 120z" />
<glyph horiz-adv-x="496" d="M39 93v90l157 360h119l-159 -360h123v119h118v-119h68v-90h-68v-93h-118v93h-240z" />
<glyph horiz-adv-x="491" d="M45 140h124q9 -68 79 -68q36 0 57 27.5t21 75.5q0 101 -80 101q-48 0 -80 -37h-107v304h358v-90h-251v-139q41 49 114 49q79 0 125 -48t46 -138q0 -92 -55.5 -142t-147.5 -50t-145 40.5t-58 114.5z" />
<glyph horiz-adv-x="520" d="M45 244q0 150 60.5 231.5t167.5 81.5q78 0 129 -37.5t58 -102.5h-125q-10 53 -67 53q-44 0 -67 -39.5t-28 -127.5q56 49 127 49q80 0 127 -46.5t47 -133.5q0 -83 -61 -135t-149 -52q-104 0 -161.5 69t-57.5 190zM171 234q1 -84 22.5 -123t70.5 -39q42 0 65 28t23 72 q0 43 -22 70.5t-67 27.5q-54 0 -92 -36z" />
<glyph horiz-adv-x="424" d="M35 453v90h359v-90l-190 -453h-119l194 453h-244z" />
<glyph horiz-adv-x="532" d="M45 145q0 48 28 84.5t79 51.5q-42 14 -67.5 47.5t-25.5 75.5q0 72 58 112.5t149 40.5t149 -40.5t58 -112.5q0 -42 -25.5 -75.5t-67.5 -47.5q51 -15 78.5 -51.5t27.5 -84.5q0 -78 -61 -119t-159 -41t-159.5 41.5t-61.5 118.5zM171 149q0 -79 95 -79t95 79q0 39 -25 61 t-70 22q-46 0 -70.5 -22t-24.5 -61zM183 398q0 -37 22 -57.5t61 -20.5t61 20.5t22 57.5q0 38 -23.5 56t-59.5 18t-59.5 -18t-23.5 -56z" />
<glyph horiz-adv-x="520" d="M45 374q0 84 60.5 133.5t150.5 49.5q104 0 161 -69t57 -190q0 -150 -60 -231.5t-167 -81.5q-82 0 -135 38t-62 115h124q12 -66 77 -66q47 0 70 43t27 137q-56 -49 -128 -49q-82 0 -128.5 43t-46.5 128zM168 374q0 -41 21.5 -65t66.5 -24q52 0 93 36q-2 77 -24 113t-69 36 q-42 0 -65 -26t-23 -70z" />
<glyph horiz-adv-x="433" d="M25 650q0 99 52.5 159t138.5 60t138.5 -60t52.5 -159t-52.5 -159t-138.5 -60t-138.5 60t-52.5 159zM135 650q0 -69 21 -105t60 -36t60 36t21 105t-21 105t-60 36t-60 -36t-21 -105z" />
<glyph horiz-adv-x="262" d="M15 716v91l105 53h105v-420h-105v330z" />
<glyph horiz-adv-x="376" d="M25 731q4 67 48.5 102.5t118.5 35.5q73 0 116.5 -34t43.5 -96q0 -28 -8.5 -50.5t-35 -51t-51.5 -50t-82 -68.5h180v-79h-318v79q22 18 52.5 43t47 38.5t37.5 31.5t32 30t22 26t15 26t4 25q0 55 -55 55q-54 0 -60 -63h-107z" />
<glyph horiz-adv-x="396" d="M25 555h107q6 -49 68 -49q66 0 66 54q0 56 -85 56h-51v77h51q73 0 73 54q0 47 -55 47t-62 -49h-107q5 59 50.5 91.5t118.5 32.5q71 0 115.5 -31.5t44.5 -87.5q0 -30 -20 -55.5t-58 -35.5q89 -16 89 -99q0 -58 -49.5 -93.5t-120.5 -35.5q-80 0 -125.5 32t-49.5 92z" />
<glyph horiz-adv-x="374" d="M15 505v80l128 275h101l-129 -275h89v89h98v-89h62v-80h-62v-65h-98v65h-189z" />
<glyph horiz-adv-x="371" d="M25 548h107q7 -42 57 -42q61 0 61 72q0 73 -61 73q-39 0 -64 -27h-88v236h289v-80h-201v-88q34 33 93 33q61 0 99.5 -38.5t38.5 -108.5q0 -68 -49 -107.5t-118 -39.5q-75 0 -117.5 30t-46.5 87z" />
<glyph horiz-adv-x="387" d="M21 629q0 115 50 177.5t133 62.5q67 0 109 -29t47 -79h-107q-12 33 -49 33q-63 0 -72 -117q38 36 94 36q70 0 108 -36t38 -104q0 -64 -49.5 -103t-118.5 -39q-86 0 -134.5 52.5t-48.5 145.5zM130 614q5 -108 74 -108q63 0 63 67q0 29 -16 47.5t-49 18.5q-40 0 -72 -25z " />
<glyph horiz-adv-x="322" d="M15 780v80h291v-80l-154 -340h-102l157 340h-192z" />
<glyph horiz-adv-x="398" d="M21 553q0 37 23 65.5t65 39.5q-35 11 -55.5 35.5t-20.5 57.5q0 56 46 87t120 31t120 -31t46 -87q0 -33 -20.5 -57.5t-55.5 -35.5q42 -11 65 -39.5t23 -65.5q0 -61 -49 -91.5t-129 -30.5t-129 30.5t-49 91.5zM127 563q0 -57 72 -57t72 57q0 54 -72 54t-72 -54zM138 742 q0 -52 61 -52t61 52q0 26 -17 39t-44 13t-44 -13t-17 -39z" />
<glyph horiz-adv-x="387" d="M15 727q0 64 49.5 103t119.5 39q85 0 133.5 -52.5t48.5 -145.5q0 -115 -50 -177.5t-132 -62.5q-68 0 -111 30.5t-49 84.5h108q11 -40 52 -40q32 0 49.5 28t21.5 89q-38 -36 -93 -36q-70 0 -108.5 36t-38.5 104zM121 727q0 -29 15.5 -47.5t48.5 -18.5q40 0 72 25 q-2 54 -19 81t-54 27q-63 0 -63 -67z" />
<glyph horiz-adv-x="365" d="M25 619v81h116v110h82v-110h116v-81h-116v-110h-82v110h-116z" />
<glyph horiz-adv-x="365" d="M25 619v81h314v-81h-314z" />
<glyph horiz-adv-x="365" d="M25 550v81h314v-81h-314zM25 688v81h314v-81h-314z" />
<glyph horiz-adv-x="162" d="M25 333l13 183h99l-27 -183h-85z" />
<glyph horiz-adv-x="176" d="M25 493q0 27 18 45t46 18q27 0 44.5 -18t17.5 -45q0 -26 -17.5 -44t-44.5 -18q-28 0 -46 17.5t-18 44.5z" />
<glyph horiz-adv-x="250" d="M25 650q0 91 38.5 164.5t93.5 120.5h97q-54 -50 -86 -128t-32 -157t32 -157t86 -128h-97q-55 47 -93.5 120.5t-38.5 164.5z" />
<glyph horiz-adv-x="250" d="M-4 365q54 50 86 128t32 157t-32 157t-86 128h98q55 -48 93 -121t38 -164t-38 -164t-93 -121h-98z" />
<glyph horiz-adv-x="433" d="M25 90q0 99 52.5 159t138.5 60t138.5 -60t52.5 -159t-52.5 -159t-138.5 -60t-138.5 60t-52.5 159zM135 90q0 -69 21 -105t60 -36t60 36t21 105t-21 105t-60 36t-60 -36t-21 -105z" />
<glyph horiz-adv-x="262" d="M15 156v91l105 53h105v-420h-105v330z" />
<glyph horiz-adv-x="376" d="M25 171q4 67 48.5 102.5t118.5 35.5q73 0 116.5 -34t43.5 -96q0 -28 -8.5 -50.5t-35 -51t-51.5 -50t-82 -68.5h180v-79h-318v79q22 18 52.5 43t47 38.5t37.5 31.5t32 30t22 26t15 26t4 25q0 55 -55 55q-54 0 -60 -63h-107z" />
<glyph horiz-adv-x="396" d="M25 -5h107q6 -49 68 -49q66 0 66 54q0 56 -85 56h-51v77h51q73 0 73 54q0 47 -55 47t-62 -49h-107q5 59 50.5 91.5t118.5 32.5q71 0 115.5 -31.5t44.5 -87.5q0 -30 -20 -55.5t-58 -35.5q89 -16 89 -99q0 -58 -49.5 -93.5t-120.5 -35.5q-80 0 -125.5 32t-49.5 92z" />
<glyph horiz-adv-x="374" d="M15 25l128 275h101l-129 -275h89v89h98v-89h62v-80h-62v-65h-98v65h-189v80z" />
<glyph horiz-adv-x="371" d="M25 -12h107q7 -42 57 -42q61 0 61 72q0 73 -61 73q-39 0 -64 -27h-88v236h289v-80h-201v-88q35 33 93 33q61 0 99.5 -38.5t38.5 -108.5q0 -68 -49 -107.5t-118 -39.5q-75 0 -117.5 30t-46.5 87z" />
<glyph horiz-adv-x="387" d="M21 69q0 115 50 177.5t133 62.5q67 0 109 -29t47 -79h-107q-12 33 -49 33q-63 0 -72 -117q38 36 94 36q70 0 108 -36t38 -104q0 -64 -49.5 -103t-118.5 -39q-86 0 -134.5 52.5t-48.5 145.5zM130 54q5 -108 74 -108q63 0 63 67q0 29 -16 47.5t-49 18.5q-40 0 -72 -25z" />
<glyph horiz-adv-x="322" d="M15 220v80h291v-80l-154 -340h-102l157 340h-192z" />
<glyph horiz-adv-x="398" d="M21 -7q0 37 23 65.5t65 39.5q-35 11 -55.5 35.5t-20.5 57.5q0 56 46 87t120 31t120 -31t46 -87q0 -33 -20.5 -57.5t-55.5 -35.5q42 -11 65 -39.5t23 -65.5q0 -61 -49 -91.5t-129 -30.5t-129 30.5t-49 91.5zM127 3q0 -57 72 -57t72 57q0 54 -72 54t-72 -54zM138 182 q0 -52 61 -52t61 52q0 26 -17 39t-44 13t-44 -13t-17 -39z" />
<glyph horiz-adv-x="387" d="M15 167q0 64 49.5 103t119.5 39q85 0 133.5 -52.5t48.5 -145.5q0 -115 -50 -177.5t-132 -62.5q-68 0 -111 30.5t-49 84.5h108q11 -40 52 -40q32 0 49.5 28t21.5 89q-38 -36 -93 -36q-70 0 -108.5 36t-38.5 104zM121 167q0 -29 15.5 -47.5t48.5 -18.5q40 0 72 25 q-2 54 -19 81t-54 27q-63 0 -63 -67z" />
<glyph horiz-adv-x="365" d="M25 59v81h116v110h82v-110h116v-81h-116v-110h-82v110h-116z" />
<glyph horiz-adv-x="365" d="M25 59v81h314v-81h-314z" />
<glyph horiz-adv-x="365" d="M25 -10v81h314v-81h-314zM25 128v81h314v-81h-314z" />
<glyph horiz-adv-x="162" d="M25 -227l13 183h99l-27 -183h-85z" />
<glyph horiz-adv-x="183" d="M25 -67q0 27 18 45t46 18q27 0 44.5 -18t17.5 -45q0 -26 -17.5 -44t-44.5 -18q-28 0 -46 17.5t-18 44.5z" />
<glyph horiz-adv-x="250" d="M25 90q0 91 38.5 164.5t93.5 120.5h97q-54 -50 -86 -128t-32 -157t32 -157t86 -128h-97q-55 47 -93.5 120.5t-38.5 164.5z" />
<glyph horiz-adv-x="250" d="M-4 -195q54 50 86 128t32 157t-32 157t-86 128h98q55 -48 93 -121t38 -164t-38 -164t-93 -121h-98z" />
<glyph horiz-adv-x="433" d="M25 490q0 99 52.5 159t138.5 60t138.5 -60t52.5 -159t-52.5 -159t-138.5 -60t-138.5 60t-52.5 159zM135 490q0 -69 21 -105t60 -36t60 36t21 105t-21 105t-60 36t-60 -36t-21 -105z" />
<glyph horiz-adv-x="262" d="M15 556v91l105 53h105v-420h-105v330z" />
<glyph horiz-adv-x="376" d="M25 571q4 67 48.5 102.5t118.5 35.5q73 0 116.5 -34t43.5 -96q0 -28 -8.5 -50.5t-35 -51t-51.5 -50t-82 -68.5h180v-79h-318v79q22 18 52.5 43t47 38.5t37.5 31.5t32 30t22 26t15 26t4 25q0 55 -55 55q-54 0 -60 -63h-107z" />
<glyph horiz-adv-x="396" d="M25 395h107q6 -49 68 -49q66 0 66 54q0 56 -85 56h-51v77h51q73 0 73 54q0 47 -55 47t-62 -49h-107q5 59 50.5 91.5t118.5 32.5q71 0 115.5 -31.5t44.5 -87.5q0 -30 -20 -55.5t-58 -35.5q89 -16 89 -99q0 -58 -49.5 -93.5t-120.5 -35.5q-80 0 -125.5 32t-49.5 92z" />
<glyph horiz-adv-x="374" d="M15 345v80l128 275h101l-129 -275h89v89h98v-89h62v-80h-62v-65h-98v65h-189z" />
<glyph horiz-adv-x="371" d="M25 388h107q7 -42 57 -42q61 0 61 72q0 73 -61 73q-39 0 -64 -27h-88v236h289v-80h-201v-88q35 33 93 33q61 0 99.5 -38.5t38.5 -108.5q0 -68 -49 -107.5t-118 -39.5q-75 0 -117.5 30t-46.5 87z" />
<glyph horiz-adv-x="387" d="M21 469q0 115 50 177.5t133 62.5q67 0 109 -29t47 -79h-107q-12 33 -49 33q-63 0 -72 -117q38 36 94 36q70 0 108 -36t38 -104q0 -64 -49.5 -103t-118.5 -39q-86 0 -134.5 52.5t-48.5 145.5zM130 454q5 -108 74 -108q63 0 63 67q0 29 -16 47.5t-49 18.5q-40 0 -72 -25z " />
<glyph horiz-adv-x="322" d="M15 620v80h291v-80l-154 -340h-102l157 340h-192z" />
<glyph horiz-adv-x="398" d="M21 393q0 37 23 65.5t65 39.5q-35 11 -55.5 35.5t-20.5 57.5q0 56 46 87t120 31t120 -31t46 -87q0 -33 -20.5 -57.5t-55.5 -35.5q42 -11 65 -39.5t23 -65.5q0 -61 -49 -91.5t-129 -30.5t-129 30.5t-49 91.5zM127 403q0 -57 72 -57t72 57q0 54 -72 54t-72 -54zM138 582 q0 -52 61 -52t61 52q0 26 -17 39t-44 13t-44 -13t-17 -39z" />
<glyph horiz-adv-x="387" d="M15 567q0 64 49.5 103t119.5 39q85 0 133.5 -52.5t48.5 -145.5q0 -115 -50 -177.5t-132 -62.5q-68 0 -111 30.5t-49 84.5h108q11 -40 52 -40q32 0 49.5 28t21.5 89q-38 -36 -93 -36q-70 0 -108.5 36t-38.5 104zM121 567q0 -29 15.5 -47.5t48.5 -18.5q40 0 72 25 q-2 54 -19 81t-54 27q-63 0 -63 -67z" />
<glyph horiz-adv-x="433" d="M25 210q0 99 52.5 159t138.5 60t138.5 -60t52.5 -159t-52.5 -159t-138.5 -60t-138.5 60t-52.5 159zM135 210q0 -69 21 -105t60 -36t60 36t21 105t-21 105t-60 36t-60 -36t-21 -105z" />
<glyph horiz-adv-x="262" d="M15 276v91l105 53h105v-420h-105v330z" />
<glyph horiz-adv-x="376" d="M25 291q4 67 48.5 102.5t118.5 35.5q73 0 116.5 -34t43.5 -96q0 -28 -8.5 -50.5t-35 -51t-51.5 -50t-82 -68.5h180v-79h-318v79q22 18 52.5 43t47 38.5t37.5 31.5t32 30t22 26t15 26t4 25q0 55 -55 55q-54 0 -60 -63h-107z" />
<glyph horiz-adv-x="396" d="M25 115h107q6 -49 68 -49q66 0 66 54q0 56 -85 56h-51v77h51q73 0 73 54q0 47 -55 47t-62 -49h-107q5 59 50.5 91.5t118.5 32.5q71 0 115.5 -31.5t44.5 -87.5q0 -30 -20 -55.5t-58 -35.5q89 -16 89 -99q0 -58 -49.5 -93.5t-120.5 -35.5q-80 0 -125.5 32t-49.5 92z" />
<glyph horiz-adv-x="374" d="M15 65v80l128 275h101l-129 -275h89v89h98v-89h62v-80h-62v-65h-98v65h-189z" />
<glyph horiz-adv-x="371" d="M25 108h107q7 -42 57 -42q61 0 61 72q0 73 -61 73q-39 0 -64 -27h-88v236h289v-80h-201v-88q35 33 93 33q61 0 99.5 -38.5t38.5 -108.5q0 -68 -49 -107.5t-118 -39.5q-75 0 -117.5 30t-46.5 87z" />
<glyph horiz-adv-x="387" d="M21 189q0 115 50 177.5t133 62.5q67 0 109 -29t47 -79h-107q-12 33 -49 33q-63 0 -72 -117q38 36 94 36q70 0 108 -36t38 -104q0 -64 -49.5 -103t-118.5 -39q-86 0 -134.5 52.5t-48.5 145.5zM130 174q5 -108 74 -108q63 0 63 67q0 29 -16 47.5t-49 18.5q-40 0 -72 -25z " />
<glyph horiz-adv-x="322" d="M15 340v80h291v-80l-154 -340h-102l157 340h-192z" />
<glyph horiz-adv-x="398" d="M21 113q0 37 23 65.5t65 39.5q-35 11 -55.5 35.5t-20.5 57.5q0 56 46 87t120 31t120 -31t46 -87q0 -33 -20.5 -57.5t-55.5 -35.5q42 -11 65 -39.5t23 -65.5q0 -61 -49 -91.5t-129 -30.5t-129 30.5t-49 91.5zM127 123q0 -57 72 -57t72 57q0 54 -72 54t-72 -54zM138 302 q0 -52 61 -52t61 52q0 26 -17 39t-44 13t-44 -13t-17 -39z" />
<glyph horiz-adv-x="387" d="M15 287q0 64 49.5 103t119.5 39q85 0 133.5 -52.5t48.5 -145.5q0 -115 -50 -177.5t-132 -62.5q-68 0 -111 30.5t-49 84.5h108q11 -40 52 -40q32 0 49.5 28t21.5 89q-38 -36 -93 -36q-70 0 -108.5 36t-38.5 104zM121 287q0 -29 15.5 -47.5t48.5 -18.5q40 0 72 25 q-2 54 -19 81t-54 27q-63 0 -63 -67z" />
<glyph horiz-adv-x="769" d="M50 102l264 263l-264 264l70 71l264 -265l265 265l70 -70l-265 -265l265 -264l-70 -70l-265 264l-264 -264z" />
<glyph horiz-adv-x="1000" d="M40 316v100h920v-100h-920z" />
<glyph horiz-adv-x="500" d="M40 316v100h420v-100h-420z" />
<glyph horiz-adv-x="344" d="M50 316v100h244v-100h-244z" />
<glyph horiz-adv-x="340" d="M50 308v111l240 191v-134l-139 -109l139 -109v-141z" />
<glyph horiz-adv-x="340" d="M50 117v134l138 110l-138 108v141l240 -191v-111z" />
<glyph horiz-adv-x="577" d="M50 308v111l240 191v-134l-139 -109l139 -109v-141zM287 308v111l240 191v-134l-139 -109l139 -109v-141z" />
<glyph horiz-adv-x="577" d="M50 117v134l138 110l-138 108v141l240 -191v-111zM287 117v134l138 110l-138 108v141l240 -191v-111z" />
<glyph horiz-adv-x="542" d="M40 172q0 40 12 71.5t30 50t40 35.5t42 28.5t35.5 29.5t20.5 37.5t-3 53.5h127q11 -56 -2.5 -93.5t-40.5 -57.5t-56 -37.5t-50.5 -46.5t-21.5 -71q0 -43 25 -66.5t70 -23.5q43 0 70.5 26.5t32.5 78.5h135q-5 -95 -69 -148.5t-169 -53.5t-166.5 49.5t-61.5 137.5zM201 637 q0 34 21.5 56t55.5 22t56 -22t22 -56t-22 -56t-56 -22t-55.5 22t-21.5 56z" />
<glyph horiz-adv-x="320" d="M82 637q0 34 22 56t56 22t56 -22t22 -56t-22 -56t-56 -22t-56 22t-22 56zM89 0l22 478h99l21 -478h-142z" />
<glyph horiz-adv-x="1070" d="M60 263q0 231 158 381.5t409 150.5q161 0 269.5 -95.5t108.5 -250.5q0 -94 -29 -170t-75.5 -121t-98.5 -69t-102 -24q-43 0 -74 18t-39 56q-81 -74 -167 -74q-65 0 -105.5 55.5t-40.5 152.5q0 155 81 250t188 95q70 0 110 -62l-13 -74q-32 43 -84 43q-62 0 -107.5 -65.5 t-45.5 -173.5q0 -61 22.5 -94.5t55.5 -33.5q59 0 109 45v-2l71 399h125l-70 -393q-9 -58 29 -58q58 0 105 86t47 203q0 125 -75 200.5t-214 75.5q-120 0 -219 -52t-159.5 -152.5t-60.5 -230.5q0 -172 93 -256.5t248 -84.5q58 0 132 13t117 29l-14 -80q-46 -17 -121.5 -30 t-142.5 -13q-82 0 -156.5 25.5t-134 74t-95 128t-35.5 178.5z" />
<glyph horiz-adv-x="841" d="M50 239v89h741v-89h-741z" />
<glyph horiz-adv-x="438" d="M50 239v89h338v-89h-338z" />
<glyph horiz-adv-x="305" d="M50 239v89h205v-89h-205z" />
<glyph horiz-adv-x="463" d="M35 398q5 74 59.5 116.5t139.5 42.5t137 -39.5t52 -108.5q0 -41 -17.5 -70t-41.5 -45t-46.5 -30.5t-33.5 -35.5t-2 -51h-117q-9 43 2 71.5t32.5 43.5t45 27.5t40.5 34.5t17 55q0 60 -68 60q-67 0 -75 -71h-124zM154 53q0 30 19 49t50 19q30 0 49 -19t19 -49 q0 -29 -19 -48.5t-49 -19.5q-31 0 -50 19.5t-19 48.5z" />
<glyph horiz-adv-x="463" d="M40 133q0 41 17.5 70t41.5 45t46.5 30.5t34 35.5t2.5 51h117q9 -43 -2 -71.5t-33 -43.5t-45 -28t-40.5 -34.5t-17.5 -54.5q0 -60 68 -60q67 0 75 71h124q-5 -74 -59.5 -116.5t-139.5 -42.5t-137 39.5t-52 108.5zM172 489q0 29 19 48.5t49 19.5t49.5 -19.5t19.5 -48.5 q0 -30 -19 -49t-50 -19q-30 0 -49 19t-19 49z" />
<glyph horiz-adv-x="303" d="M82 53q0 30 19.5 49t49.5 19q31 0 50 -19t19 -49q0 -29 -19 -48.5t-50 -19.5q-30 0 -49.5 19.5t-19.5 48.5zM87 543h129l-17 -366h-95z" />
<glyph horiz-adv-x="303" d="M82 490q0 29 19.5 48.5t49.5 19.5q31 0 50 -19t19 -49t-19 -49t-50 -19q-30 0 -49.5 19t-19.5 49zM87 0l17 366h95l17 -366h-129z" />
<glyph horiz-adv-x="362" d="M50 430q0 55 37.5 91t93.5 36t93.5 -36t37.5 -91t-37.5 -91t-93.5 -36t-93.5 36t-37.5 91zM125 430q0 -24 15.5 -40.5t40.5 -16.5t40.5 16.5t15.5 40.5t-15.5 40.5t-40.5 16.5t-40.5 -16.5t-15.5 -40.5z" />
<glyph horiz-adv-x="209" d="M50 543h109l-13 -212h-83z" />
<glyph horiz-adv-x="357" d="M50 543h109l-13 -212h-83zM198 543h109l-13 -212h-83z" />
<glyph horiz-adv-x="247" d="M39 463l59 204h117l-79 -204h-97z" />
<glyph horiz-adv-x="401" d="M39 463l59 204h117l-79 -204h-97zM199 463l60 204h117l-80 -204h-97z" />
<glyph horiz-adv-x="247" d="M39 463l79 204h97l-59 -204h-117z" />
<glyph horiz-adv-x="401" d="M39 463l79 204h97l-59 -204h-117zM199 463l80 204h97l-60 -204h-117z" />
<glyph horiz-adv-x="482" d="M50 236v92h144v138h92v-138h146v-92h-146v-139h-92v139h-144z" />
<glyph horiz-adv-x="482" d="M50 236v92h382v-92h-382z" />
<glyph horiz-adv-x="482" d="M50 146v92h382v-92h-382zM50 326v92h382v-92h-382z" />
<glyph horiz-adv-x="332" d="M60 271q0 118 47 213t115 155h113q-66 -64 -105.5 -165t-39.5 -203t39.5 -203t105.5 -165h-113q-68 61 -115 155.5t-47 212.5z" />
<glyph horiz-adv-x="332" d="M-4 -97q66 64 105.5 165t39.5 203t-39.5 203t-105.5 165h115q67 -61 114 -155.5t47 -212.5t-47 -212t-114 -156h-115z" />
<glyph horiz-adv-x="335" d="M120 -97v736h195v-79h-71v-578h71v-79h-195z" />
<glyph horiz-adv-x="335" d="M20 -18h71v578h-71v79h195v-736h-195v79z" />
<glyph horiz-adv-x="337" d="M42 230v82q80 0 80 61v127q0 67 47 103t127 36h21v-79h-15q-56 0 -56 -58v-123q0 -40 -21 -70t-53 -38q32 -8 53 -38.5t21 -70.5v-122q0 -58 56 -58h15v-79h-21q-80 0 -127 36t-47 103v128q0 60 -80 60z" />
<glyph horiz-adv-x="337" d="M20 -18h15q56 0 56 58v122q0 40 21 70.5t53 38.5q-32 8 -53 38t-21 70v123q0 58 -56 58h-15v79h22q79 0 126 -36t47 -103v-127q0 -61 80 -61v-82q-80 0 -80 -60v-128q0 -67 -47 -103t-126 -36h-22v79z" />
<glyph horiz-adv-x="413" d="M20 -31l252 605h121l-252 -605h-121z" />
<glyph horiz-adv-x="413" d="M20 574h121l252 -605h-121z" />
<glyph horiz-adv-x="601" d="M46 147q0 90 91 145q-49 58 -49 114q0 64 51 107.5t129 43.5q87 0 138 -40t57 -116h-125q-6 68 -70 68q-26 0 -43 -14.5t-17 -41.5q0 -44 52 -93l139 -132q13 43 13 102h118q0 -95 -54 -177l119 -113h-155l-37 36q-70 -51 -157 -51q-88 0 -144 43t-56 119zM159 157 q0 -40 29 -62.5t70 -22.5q46 0 81 24l-147 140q-33 -31 -33 -79z" />
<glyph horiz-adv-x="887" d="M40 369l371 371l71 -70l-252 -252h617v-99h-616l251 -250l-71 -71z" />
<glyph horiz-adv-x="887" d="M40 319v99h616l-251 252l71 70l371 -371l-371 -371l-71 71l250 250h-615z" />
<glyph horiz-adv-x="822" d="M40 401l371 371l371 -371l-71 -70l-250 250v-615h-99v616l-252 -251z" />
<glyph horiz-adv-x="822" d="M40 337l70 70l252 -251v616h99v-616l250 251l71 -70l-371 -371z" />
<glyph horiz-adv-x="725" d="M80 136v525h524v-100h-355l436 -436l-70 -70l-436 437v-356h-99z" />
<glyph horiz-adv-x="725" d="M40 125l435 436h-355v100h525v-525h-99v356l-436 -437z" />
<glyph horiz-adv-x="725" d="M40 591l70 70l436 -437v356h99v-525h-525v100l355 -1z" />
<glyph horiz-adv-x="725" d="M80 55v525h99v-356l436 437l70 -70l-436 -437l355 1v-100h-524z" />
<glyph horiz-adv-x="1676" d="M40 369l371 371l71 -70l-252 -252h1406v-99h-1405l251 -250l-71 -71z" />
<glyph horiz-adv-x="1676" d="M40 319v99h1406l-251 252l70 70l371 -371l-371 -371l-70 71l250 250h-1405z" />
<glyph horiz-adv-x="210" d="M50 574v229h110l-24 -229h-86z" />
<glyph horiz-adv-x="394" d="M50 751l132 143h162l-187 -143h-107z" />
<glyph horiz-adv-x="428" d="M50 894h86q0 -27 19.5 -44t58.5 -17t58.5 17t19.5 44h86q0 -74 -47 -113.5t-117 -39.5t-117 39.5t-47 113.5z" />
<glyph horiz-adv-x="519" d="M50 894h116l93 -64l94 64h116l-149 -143h-121z" />
<glyph horiz-adv-x="519" d="M50 751l149 143h121l149 -143h-116l-94 64l-93 -64h-116z" />
<glyph horiz-adv-x="467" d="M50 830q0 31 21 51t53 20q31 0 52 -20t21 -51t-21 -51t-52 -20q-32 0 -53 20t-21 51zM270 830q0 31 21 51t53 20q31 0 52 -20t21 -51t-21 -51t-52 -20q-32 0 -53 20t-21 51z" />
<glyph horiz-adv-x="252" d="M50 829q0 32 21.5 52.5t54.5 20.5t54.5 -20.5t21.5 -52.5q0 -31 -22 -52t-54 -21t-54 21t-22 52z" />
<glyph horiz-adv-x="394" d="M50 894h162l132 -143h-107z" />
<glyph horiz-adv-x="557" d="M50 751l107 143h151l-158 -143h-100zM249 751l108 143h150l-158 -143h-100z" />
<glyph horiz-adv-x="432" d="M50 782v86h332v-86h-332z" />
<glyph horiz-adv-x="344" d="M50 822q0 46 35 73.5t87 27.5t87 -27.5t35 -73.5t-35 -73.5t-87 -27.5t-87 27.5t-35 73.5zM146 804q17 -28 45 -9q26 16 7 45q-17 26 -45 9q-26 -18 -7 -45z" />
<glyph horiz-adv-x="488" d="M50 794q19 50 50.5 76.5t67.5 26.5q32 0 85 -22t66 -22q33 0 52 41l67 -32q-18 -50 -49.5 -76.5t-67.5 -26.5q-31 0 -84.5 22t-67.5 22q-31 0 -52 -41z" />
<glyph horiz-adv-x="349" d="M50 582l106 111h143l-150 -111h-99z" />
<glyph horiz-adv-x="379" d="M50 693h82q0 -40 58 -40q56 0 56 40h83q0 -58 -39.5 -88t-99.5 -30q-61 0 -100.5 30t-39.5 88z" />
<glyph horiz-adv-x="447" d="M50 693h104l69 -40l70 40h104l-125 -111h-97z" />
<glyph horiz-adv-x="447" d="M50 582l125 111h97l125 -111h-104l-70 40l-69 -40h-104z" />
<glyph horiz-adv-x="404" d="M50 644q0 25 18.5 41.5t44.5 16.5q27 0 45.5 -16.5t18.5 -41.5q0 -26 -18.5 -42.5t-45.5 -16.5q-26 0 -44.5 16.5t-18.5 42.5zM228 644q0 25 18 41.5t45 16.5t45 -16.5t18 -41.5q0 -26 -18 -42.5t-45 -16.5t-45 16.5t-18 42.5z" />
<glyph horiz-adv-x="230" d="M50 643q0 26 19 43t46 17t46 -17t19 -43t-19 -42.5t-46 -16.5t-46 16.5t-19 42.5z" />
<glyph horiz-adv-x="349" d="M50 693h144l105 -111h-100z" />
<glyph horiz-adv-x="494" d="M50 582l86 111h134l-126 -111h-94zM224 582l85 111h135l-127 -111h-93z" />
<glyph horiz-adv-x="366" d="M50 598v78h266v-78h-266z" />
<glyph horiz-adv-x="299" d="M50 638q0 35 28 56.5t71 21.5q44 0 72 -21t28 -57q0 -35 -28 -56t-72 -21q-43 0 -71 21t-28 56zM117 638q0 -13 9 -21.5t23 -8.5q15 0 24 8t9 22t-9 22.5t-24 8.5q-14 0 -23 -8.5t-9 -22.5z" />
<glyph horiz-adv-x="422" d="M50 617q31 81 96 81q24 0 68 -15t58 -15q21 0 36 27l64 -29q-30 -81 -95 -81q-25 0 -69 15t-58 15q-20 0 -37 -27z" />
</font>
</defs>
</svg>
